<?xml version="1.0" standalone="no"?>
<!DOCTYPE svg PUBLIC "-//W3C//DTD SVG 1.1//EN" "http://www.w3.org/Graphics/SVG/1.1/DTD/svg11.dtd">
<svg xmlns="http://www.w3.org/2000/svg">
<metadata>Generated by Fontastic.me</metadata>
<defs>
<font id="rapid-icon-font" horiz-adv-x="512">
<font-face font-family="rapid-icon-font" units-per-em="512" ascent="480" descent="-32"/>
<missing-glyph horiz-adv-x="512" />

<glyph unicode="&#99;" d="M384 480l-256 0c-53 0-96-46-96-108 0-50 27-73 64-81l0-241c0-28 21-50 48-50l224 0c26 0 48 22 48 50l0 241c37 8 64 31 64 80 0 63-43 109-96 109z m0-159l0-257c0-18-14-32-32-32l-192 0c-18 0-32 14-32 32l0 257c-37 3-64 18-64 54 0 42 32 73 64 73l32 0c0 0 0 0 0 0l192 0c0 0 0 0 0 0l32 0c32 0 64-31 64-73 0-36-27-51-64-54z"/>
<glyph unicode="&#97;" d="M112 352l288 0c9 0 16 7 16 16 0 9-7 16-16 16l-288 0c-9 0-16-7-16-16 0-9 7-16 16-16z m288-224l-288 0c-9 0-16-7-16-16 0-9 7-16 16-16l288 0c9 0 16 7 16 16 0 9-7 16-16 16z m0 128l-288 0c-9 0-16-7-16-16 0-9 7-16 16-16l288 0c9 0 16 7 16 16 0 9-7 16-16 16z"/>
<glyph unicode="&#98;" d="M352 448c0 0-16-80-96-80-80 0-96 80-96 80l-160-80 32-128 96 16 0-224 256 0 0 224 96-16 32 128z m106-172l-106 12 0-224-192 0 0 224-106-12-15 76 104 52c18-34 54-68 113-68 59 0 95 34 113 68l104-52z"/>
<glyph unicode="&#99;" d="M256 512c-141 0-256-115-256-256 0-141 115-256 256-256 141 0 256 115 256 256 0 141-115 256-256 256z m0-480c-124 0-224 100-224 224 0 124 100 224 224 224 124 0 224-100 224-224 0-124-100-224-224-224z m91 288l38 0c-20 38-59 64-105 64-46 0-85-26-106-64l-30 0c-9 0-16-7-16-16 0-9 7-16 16-16l18 0c-1-8-2-16-2-24 0-3 1-5 1-8l-17 0c-9 0-16-7-16-16 0-9 7-16 16-16l23 0c17-47 61-80 113-80 39 0 74 19 95 48l-45 0c-14-10-31-16-50-16-34 0-63 20-78 48l86 0c9 0 16 7 16 16 0 9-7 16-16 16l-95 0c0 3-1 5-1 8 0 8 2 16 4 24l92 0c9 0 16 7 16 16 0 9-7 16-16 16l-75 0c16 19 40 32 67 32 27 0 51-13 67-32z"/>
<glyph unicode="&#100;" d="M384 480l-96 0 0 32-64 0 0-32-96 0c-35 0-64-29-64-64 0-30 20-55 48-62l0-34c0-18 14-32 32-32l16 0 0-64c-18 0-32-14-32-32l0-192 256 0 0 192c0 18-14 32-32 32l0 64 16 0c18 0 32 14 32 32l0 34c28 7 48 32 48 62 0 35-29 64-64 64z m-32-416l0-32-192 0 0 144c0 9 7 16 16 16l160 0c9 0 16-7 16-16z m-160 160l0 64 128 0 0-64z m176 112c0-9-7-16-16-16l-192 0c-9 0-16 7-16 16l0 16 224 0z m16 48l-256 0c-18 0-32 14-32 32 0 18 14 32 32 32l256 0c18 0 32-14 32-32 0-18-14-32-32-32z"/>
<glyph unicode="&#101;" d="M384 512l-256 0c-70 0-128-72-128-160 0 0 0 0 0 0l0 0 0-64 0 0 0-288 288 0 0 160 96 0c0 0 0 0 0 0 70 0 128 79 128 176 0 97-58 176-128 176z m-128-480l-224 0 0 319c0 0 0 1 0 1 0 71 43 128 96 128 0 0 0 0 1 0l75 0c0 0 0 0 0 0l106 0c-32-32-54-84-54-144 0-5 0-304 0-304z m128 160c0 0 0 0 0 0l-32 0 0 0-64 0 0 0 0 0 1 160c5 72 45 128 95 128 53 0 96-65 96-144 0-80-43-144-96-144z m16 224c-26 0-47-34-48-77l0-6c1-43 22-77 48-77 26 0 48 36 48 80 0 44-22 80-48 80z m0-128c-9 0-16 21-16 48 0 26 7 48 16 48 9 0 16-22 16-48 0-27-7-48-16-48z"/>
<glyph unicode="&#102;" d="M160 176c0-62 50-112 112-112 62 0 112 50 112 112 0 62-112 176-112 176 0 0-112-114-112-176z m112-80c-44 0-80 36-80 80 0 44 80 128 80 128 0 0 80-84 80-128 0-44-36-80-80-80z m0 416c0 0-208-189-208-304 0-115 93-208 208-208 115 0 208 93 208 208 0 115-208 304-208 304z m0-480c-97 0-176 79-176 176 0 97 176 256 176 256 0 0 176-159 176-256 0-97-79-176-176-176z"/>
<glyph unicode="&#103;" d="M451 310c-26 43-21 73-21 74 1 6-1 12-6 15-5 4-11 5-16 3-2-1-34-16-47-60-3-11-5-23-6-34-5 8-9 16-12 23-35 74-19 161-18 162 1 6-1 11-5 15-4 4-10 5-16 4-4-2-102-31-125-156-8-45-3-89 4-119-10 7-19 17-28 31-13 20-23 57-23 58-2 6-7 11-13 11-7 1-13-2-16-8-2-2-39-68-39-130 0-115 86-199 207-199 121 0 209 84 209 199 0 48-6 73-29 111z m-180-278c-102 0-175 70-175 167 0 28 10 57 18 79 4-9 9-19 14-28 29-46 74-57 76-58 6-1 12 1 16 5 4 5 5 11 3 17 0 0-25 68-12 136 13 70 53 105 80 120-3-35-4-96 23-153 12-27 40-67 42-69 4-6 11-8 18-6 7 3 11 9 11 16 0 1-3 41 7 75 2 8 5 14 8 19 3-16 10-36 23-58 20-33 25-53 25-95 0-97-74-167-177-167z"/>
<glyph unicode="&#104;" d="M368 512c-62 0-112-65-112-144 0-73 42-132 96-142l0-226 32 0 0 226c54 10 96 69 96 142 0 79-50 144-112 144z m0-256c-44 0-80 50-80 112 0 62 36 112 80 112 44 0 80-50 80-112 0-62-36-112-80-112z m-208 240l0-96c0-30-4-55-32-62l0 174-32 0 0-174c-28 7-32 32-32 62l0 112-32 0 0-112c0-48 19-87 64-94l0-306 32 0 0 306c45 7 64 46 64 94l0 112-32 0z"/>
<glyph unicode="&#105;" d="M224 496l0-96c0-30-4-55-32-62l0 174-32 0 0-176c-28 7-32 34-32 64l0 96c0 6 0 16 0 16l-32 0 0-112c0-48 19-87 64-94l0-306 32 0 0 306c45 7 64 46 64 94l0 112-32 0z m202-108c-21 58-66 112-74 122l0 2-32 0 0-9 0 0 0 0 0-503 32 0 0 224 96 0 0 8 0 1c0 0 4 81-22 155z m-74-132l0 203c17-25 36-58 48-92 14-42 18-83 18-111z"/>
<glyph unicode="&#106;" d="M368 512c-62 0-112-57-112-128 0-65 42-117 96-126l0-258 32 0 0 258c54 9 96 61 96 126 0 71-50 128-112 128z m0-224c-44 0-80 43-80 96 0 53 36 96 80 96 44 0 80-43 80-96 0-53-36-96-80-96z m-208 96l-32 0 0 128-32 0 0-128-32 0 0 128-32 0 0-189c0-37 29-67 64-67l0-256 32 0 0 256c35 0 64 30 64 67l0 189-32 0z m0-62c0-19-14-34-32-34l-32 0c-18 0-32 15-32 34l0 29 96 0z"/>
<glyph unicode="&#107;" d="M426 388c-21 59-67 114-74 122l0 2-32 0 0-9 0 0 0 0 0-503 32 0 0 224 96 0 0 8 0 0c0 0 4 82-22 156z m-74-132l0 203c17-25 36-58 48-92 14-42 18-83 18-111z m-128 128l-32 0 0 128-32 0 0-128-32 0 0 128-32 0 0-192c0-35 29-64 64-64l0-256 32 0 0 256c35 0 64 29 64 64l0 192-32 0z m0-64c0-18-14-32-32-32l-32 0c-18 0-32 14-32 32l0 32 96 0z"/>
<glyph unicode="&#99;" d="M368 288l-96 0c-9 0-16-7-16-16 0-9 7-16 16-16l96 0c9 0 16 7 16 16 0 9-7 16-16 16z m0 96l-96 0c-9 0-16-7-16-16 0-9 7-16 16-16l96 0c9 0 16 7 16 16 0 9-7 16-16 16z m80 128l-352 0c-18 0-32-14-32-32l0-448c0-18 14-32 32-32l352 0c18 0 32 14 32 32l0 448c0 18-14 32-32 32z m-288-480l-48 0c-9 0-16 7-16 16l0 416c0 9 7 16 16 16l48 0z m288 16c0-9-7-16-16-16l-240 0 0 448 240 0c9 0 16-7 16-16z"/>
<glyph unicode="&#101;" d="M479 480c0 0-477 33-445-449 0 0 154-4 281 81l3 2c91 62 168 172 161 366z m-68-31c-48-24-93-58-134-97l-1 0 0-1c-21-19-41-39-59-59l-35 72c78 68 176 82 229 85z m-254-109l37-74c-22-26-42-51-60-75l-2-3c-29-40-52-76-66-99 5 119 42 198 91 251z m-66-277c18 33 37 63 56 92l137-35c-74-44-154-55-193-57z m228 81l-152 39c40 53 80 98 118 135l139-26c-23-67-62-114-105-148z m114 179l-119 22c75 69 133 103 134 104 0 0 1 0 1 0 0-48-6-89-16-126z"/>
<glyph unicode="&#102;" d="M416 224c-80 32-96 96-96 96l0 192-128 0 0-192c0 0-16-64-96-96 0 0-32-100-32-147 0-40 32-77 32-77l320 0c0 0 32 37 32 77 0 47-32 147-32 147z m-192 256l64 0 0-32-64 0z m-96-270c80 46 96 78 96 78l0 128 64 0 0-128c0 0 32-48 96-78 0 0 3-8 7-18l-270 0c4 10 7 18 7 18z m256-178l-256 0c0 0-15 14-24 32l304 0c-9-18-24-32-24-32z m-288 64c1 17 8 42 15 64l290 0c7-22 14-47 15-64z"/>
<glyph unicode="&#103;" d="M341 485c-22 14-52 23-90 26-9 0-18 1-27 1-9 0-18-1-27-1-38-3-68-12-90-26-45-23-75-60-75-101 0-26 12-50 32-71l0-217c0-53 54-96 160-96 106 0 160 43 160 96l0 217c20 21 32 45 32 71 0 41-30 78-75 101z m-117-5c88 0 128-29 128-64 0-35-40-64-128-64-88 0-128 29-128 64 0 35 40 64 128 64z m0-448c-88 0-128 29-128 64l0 193c34-21 79-33 128-33l0-160c0 0 79-10 128 9l0-9c0-35-40-64-128-64z m128 103c-41-16-96-7-96-7l0 130c36 4 70 15 96 31z m-128 153c-88 0-160 43-160 96 0 5 1 9 2 14 11-44 64-78 158-78 94 0 147 34 158 78 1-5 2-9 2-14 0-53-72-96-160-96z"/>
<glyph unicode="&#104;" d="M256 512c-141 0-256-115-256-256 0-141 115-256 256-256 141 0 256 115 256 256 0 141-115 256-256 256z m0-480c-124 0-224 100-224 224 0 124 100 224 224 224 124 0 224-100 224-224 0-124-100-224-224-224z m0 352c-71 0-128-57-128-128 0-71 57-128 128-128 71 0 128 57 128 128 0 71-57 128-128 128z m0-224c-53 0-96 43-96 96 0 53 43 96 96 96 53 0 96-43 96-96 0-53-43-96-96-96z"/>
<glyph unicode="&#105;" d="M400 448l-112 0 0 32-64 0 0-32-112 0c-9 0-16-7-16-16 0-9 7-16 16-16l16 0 0-96c0-18 14-32 32-32l0-64c-18 0-32-14-32-32l0-192 256 0 0 192c0 18-14 32-32 32l0 64c18 0 32 14 32 32l0 96 16 0c9 0 16 7 16 16 0 9-7 16-16 16z m-48-384l0-32-192 0 0 144c0 9 7 16 16 16l160 0c9 0 16-7 16-16z m-160 160l0 64 128 0 0-64z m160 112c0-9-7-16-16-16l-160 0c-9 0-16 7-16 16l0 16 192 0z m0 48l-192 0 0 16c0 9 7 16 16 16l160 0c9 0 16-7 16-16z"/>
<glyph unicode="&#106;" d="M512 144c0 127-90 231-223 239l0 33 47 0c9 0 16 7 16 16 0 9-7 16-16 16l-128 0c-9 0-16-7-16-16 0-9 7-16 16-16l47 0 0-33c-133-8-223-112-223-239 0-5 0-16 0-16l0-32 480 0 0 32c0 0 0 11 0 16z m-35-16l-410 0c0 5-1 11-1 16 0 115 84 208 206 208 122 0 206-93 206-208 0-5-1-11-1-16z m18-64l-446 0c-9 0-17-7-17-16 0-9 8-16 17-16l446 0c9 0 17 7 17 16 0 9-8 16-17 16z"/>
<glyph unicode="&#107;" d="M495 64l-478 0c-9 0-17-7-17-16 0-9 8-16 17-16l478 0c9 0 17 7 17 16 0 9-8 16-17 16z m-175 312l0 29c0 42-29 75-64 75-35 0-64-33-64-75l0-29c-118-29-192-136-192-232 0 5 0-48 0-48l512 0c0 0 0 53 0 48 0 96-74 203-192 232z m-96 32c0 22 14 40 32 40 18 0 32-18 32-40l0-26c-10 1-21 2-32 2-11 0-22-1-32-2z m256-280l-448 0c0 0 0 8 0 11 0 99 88 213 224 213 136 0 224-114 224-213 0-3 0-11 0-11z"/>
<glyph unicode="&#108;" d="M288 512l-32 0 0-96 32 0z m96-32l-32 0 0-64 32 0z m-192 0l-32 0 0-64 32 0z m288-160c0 13 0 64 0 64l-448 0c0 0 0-51 0-64 0-89 52-165 126-201l-62-102 29-17 64 107c21-7 44-11 67-11 23 0 46 4 67 11l64-107 29 17-62 102c74 36 126 112 126 201z m-224-192c-106 0-192 86-192 192 0 11-2 22 0 32l384 0c2-10 0-21 0-32 0-106-86-192-192-192z"/>
<glyph unicode="&#109;" d="M192 224l-32 0 0-64 32 0z m-32 96l32 0 0 64-32 0z m256 192l-288 0c-18 0-32-14-32-32l0-448c0-18 14-32 32-32l288 0c18 0 32 14 32 32l0 448c0 18-14 32-32 32z m0-464c0-9-7-16-16-16l-256 0c-9 0-16 7-16 16l0 208 288 0z m0 240l-288 0 0 176c0 9 7 16 16 16l256 0c9 0 16-7 16-16z"/>
<glyph unicode="&#110;" d="M432 288l-32 0c-9 0-16-7-16-16 0-9 7-16 16-16l32 0c9 0 16 7 16 16 0 9-7 16-16 16z m-112 96l-224 0c-18 0-32-14-32-32l0-192c0-18 14-32 32-32l224 0c18 0 32 14 32 32l0 192c0 18-14 32-32 32z m0-208c0-9-7-16-16-16l-192 0c-9 0-16 7-16 16l0 160c0 9 7 16 16 16l192 0c9 0 16-7 16-16z m112 176l-32 0c-9 0-16-7-16-16 0-9 7-16 16-16l32 0c9 0 16 7 16 16 0 9-7 16-16 16z m48 96l-448 0c-18 0-32-14-32-32l0-320c0-18 14-32 32-32l448 0c18 0 32 14 32 32l0 320c0 18-14 32-32 32z m0-336c0-9-7-16-16-16l-416 0c-9 0-16 7-16 16l0 288c0 9 7 16 16 16l416 0c9 0 16-7 16-16z"/>
<glyph unicode="&#111;" d="M501 288l-53 160-32 0 0 64-288 0 0-64-32 0-64-192 32 0 0-256 416 0 0 256 32 0z m-341 192l224 0 0-32-224 0z m167-64l42-128-81 0 0 128z m-71 0l0-128-81 0 42 128z m-139 0l11 0 0 0 49 0-42-128-60 0z m331-384l-352 0 0 64 352 0z m0 96l-352 0 0 128 352 0z m-39 160l-42 128 60 0 42-128z"/>
<glyph unicode="&#112;" d="M320 288l64 0 0 32-64 0z m0-64l64 0 0 32-64 0z m0-64l64 0 0 32-64 0z m64 256l-256 0 0-32 256 0z m-128-96l-128 0 0-32 128 0z m-224 192l0-512 32 0 64 48 64-48 64 48 64-48 64 48 64-48 32 0 0 512z m416-480l-64 48-64-48-64 48-64-48-64 48-64-48 0 448 384 0z m-192 160l-128 0 0-32 128 0z m0 64l-128 0 0-32 128 0z"/>
<glyph unicode="&#113;" d="M384 288l-256 0 0-32 256 0z m0 128l-256 0 0-32 256 0z m0-192l-256 0 0-32 256 0z m-352 288l0-512 32 0 64 48 64-48 64 48 64-48 64 48 64-48 32 0 0 512z m416-480l-64 48-64-48-64 48-64-48-64 48-64-48 0 448 384 0z"/>
<glyph unicode="&#114;" d="M445 512l-63-64-61 64-66-64-64 64-66-64-59 64-34 0 0-512 448 0 0 512z m3-480l-384 0 0 448 65-64 62 64 63-64 67 64 63-64 64 64z m-187 192l0 72c20-2 38-10 52-25l18 20c-17 17-41 28-70 31l0 30-21 0 0-30c-42-3-73-27-73-61 0-41 37-52 73-62l0-80c-28 3-49 16-63 31l-17-21c17-19 44-33 80-35l0-30 21 0 0 30c55 3 75 35 75 64 0 44-39 56-75 66z m-21 5c-24 7-43 15-43 33 0 20 18 33 43 35z m21-111l0 76c25-7 45-16 45-38 0-16-11-34-45-38z"/>
<glyph unicode="&#115;" d="M509 332l-70 134c-4 8-15 14-24 14l-160 0c0 0-1 0-1 0 0 0 0 0 0 0l-158 0c-9 0-19-6-23-14l-70-131c-4-8-3-20 2-27l239-303c3-3 6-5 10-5 3 0 7 2 9 5l19 23 3 1-1 2 223 274c5 7 6 19 2 27z m-91 104l44-84-77 0z m-29 12l-36-89-66 89z m-135 0l72-96-143 0z m-31 0l-69-92-37 92z m-132-15l32-81-75 0z m-55-113l91 0 0 0 9 0 98-248z m218-212l-86 212 170 0z m19-38l99 250 10 0 0 0 96 0z"/>
<glyph unicode="&#116;" d="M336 448l-160 0 0-32 160 0z m-43-128l91 112 0 64-55 16-146 0-55-16 0-64 91-112z m-133 160l192 0 0-48-77-80-38 0-77 80z m198-126l-6-34-1 0c39-29 65-75 65-128 0-88-72-160-160-160-88 0-160 72-160 160 0 53 26 99 65 128l-1 0-6 34c-54-34-90-93-90-162 0-106 86-192 192-192 106 0 192 86 192 192 0 69-36 128-90 162z"/>
<glyph unicode="&#117;" d="M320 512l-128 0 0-32 128 0z m64-96l-256 0 0-32 256 0z m0 64l-32 0 0-32 32 0c18 0 32-14 32-32l0-320c0-18-14-32-32-32l-256 0c-18 0-32 14-32 32l0 320c0 18 14 32 32 32l32 0 0 32-32 0c-35 0-64-29-64-64l0-320c0-35 29-64 64-64l32 0 0-32 32 0 0 32 128 0 0-32 32 0 0 32 32 0c35 0 64 29 64 64l0 320c0 35-29 64-64 64z m-256-128l0-224c0-18 14-32 32-32l192 0c18 0 32 14 32 32l0 224z m208-32l16 0 0-176c0-9-7-16-16-16l-160 0c-9 0-16 7-16 16l0 176z"/>
<glyph unicode="&#118;" d="M294 296c34 15 58 49 58 88 0 53-43 96-96 96-53 0-96-43-96-96 0-6 1-11 1-16l33 0c-1 5-2 10-2 16 0 35 29 64 64 64 35 0 64-29 64-64 0-35-29-64-64-64l0-32 208-224c0 0 38-32-32-32l-352 0c-70 0-32 31-32 32l156 144-50 0-154-144c0-18 14-64 32-64l448 0c18 0 32 46 32 64z"/>
<glyph unicode="&#119;" d="M480 192l-12 0c7 11 12 25 12 39 0 38-29 68-64 68-2 0-3 0-5 0l-187 85c-81-88-192 0-192 0l0-192c-18 0-32-15-32-32l0-32c0-18 14-32 32-32l448 0c18 0 32 14 32 32l0 32c0 17-14 32-32 32z m-416 142c90-53 168 18 168 18l55-27c0 0 0 0 0 0l-61-36c-5-7-2-17 7-22 8-4 19-1 24 6 0 0 61 37 61 37l35-17c-1 0-63-37-63-37-5-8-2-18 7-22 8-5 19-2 24 5 0 0 62 39 62 40 0 0 32-14 33-14 18 0 32-15 32-34 0-18-32-39-32-39l-352 0z m400-206l-416 0c-9 0-16 7-16 16 0 9 7 16 16 16l416 0c9 0 16-7 16-16 0-9-7-16-16-16z"/>
<glyph unicode="&#120;" d="M352 288l0 224-128-77 0-83-32 0 0-64-32 0 0-288 224 0 0 288z m-96 144l64 16 0-96-64 0z m-32-112l96 0 0-32-96 0z m128-288l-160 0 0 224 160 0z"/>
<glyph unicode="&#121;" d="M464 384l-121-73c-6 6-14 9-23 9l-128 0c-9 0-17-3-23-9l-121 73c-27 0-48-22-48-48l0-192c0-27 21-48 48-48l121 72c6-5 14-8 23-8l128 0c9 0 17 3 23 8l121-72c26 0 48 21 48 48l0 192c0 26-22 48-48 48z m-304-128l-48 0c-9 0-16-7-16-16 0-9 7-16 16-16l48 0 0-32-128-64 0 224 128-75z m160-52c0-7-7-12-16-12l-96 0c-9 0-16 5-16 12l0 72c0 7 7 12 16 12l96 0c9 0 16-5 16-12z m160-76l-128 64 0 32 48 0c9 0 16 7 16 16 0 9-7 16-16 16l-48 0 0 21 128 75z"/>
<glyph unicode="&#122;" d="M261 272l0 72c20-2 38-10 52-25l18 20c-17 17-41 28-70 31l0 30-21 0 0-30c-42-3-73-27-73-61 0-41 37-52 73-62l0-80c-28 3-49 16-63 31l-17-21c17-19 44-33 80-35l0-30 21 0 0 30c55 3 75 35 75 64 0 44-39 56-75 66z m-21 5c-24 7-43 15-43 33 0 20 18 33 43 35z m21-111l0 76c25-7 45-16 45-38 0-16-11-34-45-38z m-5 346c-141 0-256-115-256-256 0-141 115-256 256-256 141 0 256 115 256 256 0 141-115 256-256 256z m0-480c-124 0-224 100-224 224 0 124 100 224 224 224 124 0 224-100 224-224 0-124-100-224-224-224z"/>
<glyph unicode="&#65;" d="M293 168c-18 0-27 13-48 13-6 0-13-1-17-3 13 10 24 23 24 43 0 5-1 10-2 14l40 0 0 18-49 0c-11 15-26 27-26 51 0 26 21 41 46 41 20 0 36-12 42-26l22 13c-12 23-36 36-66 36-40 0-74-28-74-64 0-24 14-38 25-51l-34 0 0-18 47 0c3-6 5-12 5-19 0-20-15-38-43-50l9-20c14 7 28 13 39 13 25 0 29-15 59-15 20 0 35 6 44 15l-12 22c-4-6-17-13-31-13z m-37 344c-141 0-256-115-256-256 0-141 115-256 256-256 141 0 256 115 256 256 0 141-115 256-256 256z m0-480c-124 0-224 100-224 224 0 124 100 224 224 224 124 0 224-100 224-224 0-124-100-224-224-224z"/>
<glyph unicode="&#66;" d="M256 512c-141 0-256-115-256-256 0-141 115-256 256-256 141 0 256 115 256 256 0 141-115 256-256 256z m0-480c-124 0-224 100-224 224 0 124 100 224 224 224 124 0 224-100 224-224 0-124-100-224-224-224z m68 320l-52-85-32 0-52 85-28 0 64-112-48 0 0-16 64 0 0-32-64 0 0-16 64 0 0-64 32 0 0 64 64 0 0 16-64 0 0 32 64 0 0 16-48 0 64 112z"/>
<glyph unicode="&#67;" d="M496 224l-480 0c0 0 0 0-1 0 0 0 0 0 0 0-4 0-7-2-10-4 0-1 0 0 0-1-1 0-1 0-1 0-2-3-4-6-4-10 0 0 0 0 0 0 0-1 0-1 0-1 0-6 3-11 8-13l158-158c6-6 16-6 22 0 6 6 6 15 0 21l-134 134 442 0c9 0 16 7 16 16 0 9-7 16-16 16z m-480 64l480 0c0 0 0 0 1 0 0 0 0 0 0 0 4 0 7 2 10 4 0 0 0 0 0 1 1 0 0 0 1 0 2 3 4 6 4 10 0 0 0 0 0 0 0 1 0 1 0 1 0 6-3 11-8 13l-158 159c-6 6-16 6-22 0-6-6-6-16 0-22l134-134-442 0c-9 0-16-7-16-16 0-9 7-16 16-16z"/>
<glyph unicode="&#68;" d="M480 53l-117 447c-1 6-6 10-11 11l0 1-32 0c0 0 0 0 0 0l-128 0c0 0 0 0 0 0l-32 0 0-1c-5-1-10-5-11-11l-117-447c-2-8 3-17 12-19l124-33c8-3 17 2 19 11l69 263 69-263c2-9 11-14 19-11l124 33c9 2 14 11 12 19z m-51 3l-62-16c-9-3-17 2-20 11l-90 349-2 0-90-349c-3-9-11-14-20-11l-62 16c-9 2-14 11-11 20l88 340 48 0 0 32-40 0 8 32 160 0 8-32-40 0 0-32 48 0 88-340c3-9-2-18-11-20z"/>
<glyph unicode="&#69;" d="M480 117l-117 287c-1 6-6 10-11 11l0 1-160 0c0 0 0 0 0 0l-32 0 0-1c-5-1-10-5-11-11l-117-287c-2-8 3-17 12-19l156-33c8-3 17 2 19 11l37 90 37-90c2-9 11-14 19-11l156 33c9 2 14 11 12 19z m-51 3l-94-16c-9-3-17 2-20 11l-59 134-59-134c-3-9-11-14-20-11l-94 16c-9 2-14 11-11 20l79 180 57 0 0 32-42 0 10 32 160 0 10-32-42 0 0-32 57 0 79-180c3-9-2-18-11-20z"/>
<glyph unicode="&#70;" d="M448 178c-1 1-1 2-1 3 0 1 0 1 0 1-1 2-1 3-2 4l-29 84 0 98c0 1 0 2-1 3 0 1 0 1 0 1l0 0c0 1-1 3-2 4l-25 59c-2 7-10 12-18 13-1 0-1 0-2 0l-54 0c-13 37-48 64-90 64-42 0-77-27-90-64l-54 0c-1 0-1 0-2 0-8-1-16-5-18-13l-25-59c-1-1-2-3-2-4l0 0c0 0 0 0 0-1-1-1-1-2-1-3l0-98-29-84c-1-1-1-3-2-4 0 0 0 0 0-1 0-1 0-2-1-3 0-1 0-2 0-2l0-160c0-7 4-12 10-15 2-1 4-1 6-1l416 0c9 0 16 7 16 16l0 160c0 1 0 1 0 2z m-128 238l38 0 26-62 0-66-64 0z m-96 64c24 0 44-13 55-32l-110 0c11 19 31 32 55 32z m-64-64l128 0 0-128-128 0z m-96-61l26 61 38 0 0-128-64 0z m64-323l0 64 192 0 0-64z m288 144l0-144-64 0 0 96-256 0 0-96-64 0 0 144c0 0 0 0 0 1l28 79 68 0 0-48c0-9 7-16 16-16 9 0 16 7 16 16l0 48 128 0 0-48c0-9 7-16 16-16 9 0 16 7 16 16l0 48 69 0 27-79c0 0 0-1 0-1z"/>
<glyph unicode="&#71;" d="M448 178c-1 1-1 2-1 3 0 1 0 1 0 1-1 2-1 3-2 4l-29 84 0 98c0 1 0 2-1 3 0 1 0 1 0 1l0 0c0 1-1 3-2 4l-25 59c-2 7-10 12-18 13-1 0-1 0-2 0l-54 0c-13 37-48 64-90 64-42 0-77-27-90-64l-54 0c-1 0-1 0-2 0-8-1-16-5-18-13l-25-59c-1-1-2-3-2-4l0 0c0 0 0 0 0-1-1-1-1-2-1-3l0-98-29-84c-1-1-1-3-2-4 0 0 0 0 0-1 0-1 0-2-1-3 0-1 0-2 0-2l0-160c0-7 4-12 10-15 2-1 4-1 6-1l416 0c9 0 16 7 16 16l0 160c0 1 0 1 0 2z m-128 238l38 0 26-62 0-66-64 0z m-96 64c24 0 44-13 55-32l-110 0c11 19 31 32 55 32z m-64-64l128 0 0-128-128 0z m-96-61l26 61 38 0 0-128-64 0z m352-179l0-144-384 0 0 144c0 0 0 0 0 1l28 79 68 0 0-48c0-9 7-16 16-16 9 0 16 7 16 16l0 48 128 0 0-48c0-9 7-16 16-16 9 0 16 7 16 16l0 48 69 0 27-79c0 0 0-1 0-1z m-320-80l256 0 0 32-256 0z"/>
<glyph unicode="&#72;" d="M480 256c0 35-29 64-64 64l-1 0c-7 107-75 192-159 192-84 0-152-85-159-192l-1 0c-35 0-64-29-64-64l0-3c0-1 0-3 0-4l12-70c1-1 1-1 1-1l19-114c0-35 29-64 64-64l256 0c35 0 64 29 64 64l19 114c0 0 0 0 1 1l12 70c0 1 0 3 0 4z m-224 224c67 0 121-70 127-160l-254 0c6 90 60 160 127 160z m160-416c0-18-14-32-32-32l-256 0c-18 0-32 14-32 32l-14 87c45-30 106-55 174-55 68 0 129 25 174 55z m21 123c-41-35-107-61-181-61-74 0-140 26-181 61l-11 69c0 18 14 32 32 32l320 0c18 0 32-14 32-32z m-181 69c-18 0-32-14-32-32 0-18 14-32 32-32 18 0 32 14 32 32 0 18-14 32-32 32z"/>
<glyph unicode="&#73;" d="M480 448l-64 0 0 32c0 18-14 32-32 32l-224 0c-18 0-32-14-32-32l0-32-64 0c-18 0-32-30-32-48l0-368c0-18 14-32 32-32l416 0c18 0 32 14 32 32l0 384c0 18-14 32-32 32z m-320-6l87-87-71-35c-9 0-16 7-16 16z m96-410l-176 0c-9 0-16 7-16 16l0 336c0 9 0 32 32 32l32 0 0-96c0-18 14-32 32-32l96 41z m-86 444c-1 1-2 0-3 1 3 2 6 3 9 3l192 0c3 0 6-1 9-3-1-1-2-1-3-2l-102-101z m214-34l0-106c0-9-7-16-16-16l-71 35z m96-394c0-9-7-16-16-16l-176 0 0 297 96-41c18 0 32 14 32 32l0 96 32 0c32 0 32-23 32-32z m-160 144l128 0 0 32-128 0z"/>
<glyph unicode="&#74;" d="M480 448l-84 0c-25 38-71 64-124 64-53 0-99-26-124-64l-84 0c-18 0-32-15-32-33l0-382c0-18 14-33 32-33l416 0c18 0 32 15 32 33l0 382c0 18-14 33-32 33z m-224-416l-176 0c-9 0-16 7-16 17l0 350c0 9 7 17 16 17l53 0c-3-10-5-21-5-32 0-66 56-119 128-127z m-96 352c0 53 50 96 112 96 62 0 112-43 112-96 0-53-50-96-112-96-62 0-112 43-112 96z m320-335c0-10-7-17-16-17l-176 0 0 225c72 8 128 61 128 127 0 11-2 22-5 32l53 0c9 0 16-7 16-17z m-160 143l128 0 0 32-128 0z"/>
<glyph unicode="&#75;" d="M288 64l32 0 0 160-32 0z m-16 448l-176-144 0-336c0-18 14-32 32-32l288 0c18 0 32 14 32 32l0 336z m144-464c0-9-7-16-16-16l-256 0c-9 0-16 7-16 16l0 304 144 128 144-128z m-192 16l32 0 0 160-32 0z m-16 288c0-35 29-64 64-64 35 0 64 29 64 64 0 35-29 64-64 64-35 0-64-29-64-64z m96 0c0-18-14-32-32-32-18 0-32 14-32 32 0 18 14 32 32 32 18 0 32-14 32-32z"/>
<glyph unicode="&#76;" d="M184 145l22-22 114 113-23 23z m68 159l-114-113 23-23 113 113z m238 186l-224 22-257-257c-13-12-13-32 0-45l201-201c12-12 32-12 45 0l257 257z m-246-447c-7-6-17-6-23 0l-179 178c-6 7-6 17 0 23l235 234 190-11 11-190z m89 380c-25-25-25-65 0-90 25-24 65-24 89 0 25 25 25 65 0 90-24 24-64 24-89 0z m67-67c-12-13-32-13-45 0-12 12-12 32 0 44 13 13 33 13 45 0 12-12 13-32 0-44z"/>
<glyph unicode="&#77;" d="M208 352c0-35 29-64 64-64 35 0 64 29 64 64 0 35-29 64-64 64-35 0-64-29-64-64z m96 0c0-18-14-32-32-32-18 0-32 14-32 32 0 18 14 32 32 32 18 0 32-14 32-32z m-32 160l-176-144 0-336c0-18 14-32 32-32l288 0c18 0 32 14 32 32l0 336z m144-464c0-9-7-16-16-16l-256 0c-9 0-16 7-16 16l0 48 288 0z m0 80l-288 0 0 224 144 128 144-128z"/>
<glyph unicode="&#78;" d="M422 333c25 25 25 65 0 90-24 24-64 24-89 0-25-25-25-65 0-90 25-24 65-24 89 0z m-67 67c13 13 33 13 45 0 12-12 12-32 0-44-12-13-32-13-45 0-12 12-12 32 0 44z m-89 112l-257-257c-13-12-13-32 0-45l201-201c12-12 32-12 45 0l257 257 0 246z m-22-469c-7-6-17-6-23 0l-179 178c-6 7-6 17 0 23l34 33 201-201z m234 234l-179-178-201 201 179 178 203 2z"/>
<glyph unicode="&#79;" d="M192 64l160 0 0 32-160 0z m80 448l-176-140 0-340c0-18 14-32 32-32l288 0c18 0 32 14 32 32l0 340z m144-464c0-9-7-16-16-16l-256 0c-9 0-16 7-16 16l0 308 144 124 144-124z m-224 256c0-44 36-80 80-80 44 0 80 36 80 80 0 44-36 80-80 80-44 0-80-36-80-80z m128 0c0-27-22-48-48-48-26 0-48 21-48 48 0 27 21 48 48 48 26 0 48-21 48-48z"/>
<glyph unicode="&#80;" d="M98 210l112-111 22 22-111 112z m331 128c25 26 25 66 0 91-25 25-66 25-91 0-25-25-25-65 0-91 25-25 66-25 91 0z m-67 69c12 13 32 13 45 0 13-12 13-33 0-45-13-13-33-13-45 0-13 12-13 33 0 45z m-96 105l-257-257c-13-12-13-32 0-45l201-201c12-12 32-12 45 0l257 257 0 246z m212-235l-234-234c-7-6-17-6-23 0l-179 178c-6 7-6 17 0 23l235 234 203 2z"/>
<glyph unicode="&#81;" d="M422 160l-50-54-50 54-25-24 51-56-51-56 25-24 50 54 50-54 25 24-52 56 52 56z m-102 192c0 35-29 64-64 64-35 0-64-29-64-64 0-35 29-64 64-64 35 0 64 29 64 64z m-64-32c-18 0-32 14-32 32 0 18 14 32 32 32 18 0 32-14 32-32 0-18-14-32-32-32z m0 192l-192-144 0-336c0-18 16-32 35-32l157 0 0 32-142 0c-10 0-18 7-18 16l0 304 160 128 160-128 0-128 32 0 0 144z"/>
<glyph unicode="&#82;" d="M256 96l160 0 0 32-160 0z m64 256c0 35-29 64-64 64-35 0-64-29-64-64 0-35 29-64 64-64 35 0 64 29 64 64z m-96 0c0 18 14 32 32 32 18 0 32-14 32-32 0-18-14-32-32-32-18 0-32 14-32 32z m32 160l-192-144 0-336c0-18 16-32 35-32l157 0 0 32-142 0c-10 0-18 7-18 16l0 304 160 128 160-128 0-128 32 0 0 144z"/>
<glyph unicode="&#83;" d="M256 512l-192-144 0-336c0-18 16-32 35-32l157 0 0 32-142 0c-10 0-18 7-18 16l0 304 160 128 160-128 0-128 32 0 0 144z m96-320l-32 0 0-64-64 0 0-32 64 0 0-64 32 0 0 64 64 0 0 32-64 0 0 64z m-32 160c0 35-29 64-64 64-35 0-64-29-64-64 0-35 29-64 64-64 35 0 64 29 64 64z m-96 0c0 18 14 32 32 32 18 0 32-14 32-32 0-18-14-32-32-32-18 0-32 14-32 32z"/>
<glyph unicode="&#84;" d="M272 512l-176-144 0-336c0-18 14-32 32-32l288 0c18 0 32 14 32 32l0 336z m144-464c0-9-7-16-16-16l-256 0c-9 0-16 7-16 16l0 304 144 128 144-128z m-208 304c0-35 29-64 64-64 35 0 64 29 64 64 0 35-29 64-64 64-35 0-64-29-64-64z m96 0c0-18-14-32-32-32-18 0-32 14-32 32 0 18 14 32 32 32 18 0 32-14 32-32z"/>
<glyph unicode="&#85;" d="M480 384l0 96c0 18-14 32-32 32l-384-128c-18 0-32-14-32-32l0-320c0-18 14-32 32-32l416 0c18 0 32 14 32 32l0 320c0 18-14 32-32 32z m-48 96c9 0 16-7 16-16l0-80-280 0z m48-320l-64 0 0 32 64 0z m0 64l-96 0 0-96 96 0 0-80c0-9-7-16-16-16l-384 0c-9 0-16 7-16 16l0 288c0 9 7 16 16 16l384 0c9 0 16-7 16-16z"/>
<glyph unicode="&#86;" d="M480 384l-64 0 0 73c0 30-24 55-53 55l-311 0c-26 0-48-21-51-48l-1 0 0-432c0-18 14-32 32-32l448 0c18 0 32 14 32 32l0 320c0 18-14 32-32 32z m-448 32l0 48c0 9 7 16 16 16l320 0c9 0 16-7 16-16l0-80-352 0z m448-368c0-9-7-16-16-16l-416 0c-9 0-16 7-16 16l0 288c0 9 7 16 16 16l416 0c9 0 16-7 16-16z m-80 208c-27 0-48-21-48-48 0-26 21-48 48-48 26 0 48 22 48 48 0 27-22 48-48 48z m0-64c-9 0-16 7-16 16 0 9 7 16 16 16 9 0 16-7 16-16 0-9-7-16-16-16z"/>
<glyph unicode="&#87;" d="M439 304c5 10 9 21 9 32 0 62-86 112-192 112-106 0-192-50-192-112 0-11 4-22 9-32-5-10-9-21-9-32 0-11 4-22 9-32-5-10-9-21-9-32 0-11 4-22 9-32-5-10-9-21-9-32 0-62 86-112 192-112 106 0 192 50 192 112 0 11-4 22-9 32 5 10 9 21 9 32 0 11-4 22-9 32 5 10 9 21 9 32 0 11-4 22-9 32z m-183-240c-88 0-160 36-160 80 0 1 0 1 0 2 35-30 93-50 160-50 67 0 125 20 160 50 0-1 0-1 0-2 0-44-72-80-160-80z m0 64c-88 0-160 36-160 80 0 1 0 1 0 2 35-30 93-50 160-50 67 0 125 20 160 50 0-1 0-1 0-2 0-44-72-80-160-80z m0 64c-88 0-160 36-160 80 0 1 0 1 0 2 35-30 93-50 160-50 67 0 125 20 160 50 0-1 0-1 0-2 0-44-72-80-160-80z m0 64c-88 0-160 36-160 80 0 44 72 80 160 80 88 0 160-36 160-80 0-44-72-80-160-80z"/>
<glyph unicode="&#88;" d="M448 384c0 53-86 96-192 96-106 0-192-43-192-96 0-6 0-288 0-288 0 0 0 0 0 0l0-18c15-45 97-78 192-78 95 0 177 33 192 78 0 0 0 300 0 306z m-32-288c0-35-72-64-160-64-88 0-160 29-160 64l0 43c34-26 93-43 160-43 67 0 126 17 160 43z m0 96c0-35-72-64-160-64-88 0-160 29-160 64l0 43c34-26 93-43 160-43 67 0 126 17 160 43z m0 96c0-35-72-64-160-64-88 0-160 29-160 64l0 43c34-26 93-43 160-43 67 0 126 17 160 43z m-160 32c-88 0-160 29-160 64 0 35 72 64 160 64 88 0 160-29 160-64 0-35-72-64-160-64z"/>
<glyph unicode="&#89;" d="M416 192l0 224c0 18-14 32-32 32l-352 0c-18 0-32-14-32-32l0-224c0-18 14-32 32-32l352 0c18 0 32 14 32 32z m-48 0l-320 0c-9 0-16 7-16 16l0 192c0 9 7 16 16 16l320 0c9 0 16-7 16-16l0-192c0-9-7-16-16-16z m112 160l-32 0 0-32 16 0c9 0 16-7 16-16l0-192c0-9-7-16-16-16l-320 0c-9 0-16 7-16 16l0 16-32 0 0-32c0-18 14-32 32-32l352 0c18 0 32 14 32 32l0 224c0 18-14 32-32 32z m-272 32c-44 0-80-36-80-80 0-44 36-80 80-80 44 0 80 36 80 80 0 44-36 80-80 80z m0-128c-27 0-48 21-48 48 0 26 21 48 48 48 26 0 48-22 48-48 0-27-22-48-48-48z"/>
<glyph unicode="&#90;" d="M188 322c0 11 10 18 22 18 18 0 31-13 31-13l11 22c0 0-12 13-35 15l0 20-17 0 0-20c-22-4-38-21-38-42 0-46 68-43 68-68 0-13-10-18-21-18-20 0-35 15-35 15l-14-20c0 0 14-17 40-20l0-19 17 0 0 19c25 3 39 22 39 43 0 47-68 43-68 68z m228-162l0 256c0 18-14 32-32 32l-352 0c-18 0-32-14-32-32l0-256c0-18 14-32 32-32l352 0c18 0 32 14 32 32z m-48 0l-320 0c-9 0-16 7-16 16l0 224c0 9 7 16 16 16l320 0c9 0 16-7 16-16l0-224c0-9-7-16-16-16z m112 192l-32 0 0-32 16 0c9 0 16-7 16-16l0-224c0-9-7-16-16-16l-320 0c-9 0-16 7-16 16l0 16-32 0 0-32c0-18 14-32 32-32l352 0c18 0 32 14 32 32l0 256c0 18-14 32-32 32z"/>
<glyph unicode="&#48;" d="M32 288l-32 0 0-64 32 0z m416 224l-384 0c-35 0-64-29-64-64l0-96 32 0 0 96c0 18 14 32 32 32l384 0c18 0 32-14 32-32l0-384c0-18-14-32-32-32l-384 0c-18 0-32 14-32 32l0 96-32 0 0-96c0-35 29-64 64-64l384 0c35 0 64 29 64 64l0 384c0 35-29 64-64 64z m-192-384c71 0 128 57 128 128 0 71-57 128-128 128-71 0-128-57-128-128 0-71 57-128 128-128z m0 224c53 0 96-43 96-96 0-53-43-96-96-96-53 0-96 43-96 96 0 53 43 96 96 96z m160-288c18 0 32 14 32 32l0 320c0 18-14 32-32 32l-320 0c-18 0-32-14-32-32l0-320c0-18 14-32 32-32z m-320 336c0 9 7 16 16 16l288 0c9 0 16-7 16-16l0-288c0-9-7-16-16-16l-288 0c-9 0-16 7-16 16z"/>
<glyph unicode="&#49;" d="M192 160l-128 0 0-32 128 0z m128 0l-96 0 0-32 96 0z m-320 96l0-160c0-35 29-64 64-64l384 0c35 0 64 29 64 64l0 192-512 0z m32 0l448 0 0-160c0-18-14-32-32-32l-384 0c-18 0-32 14-32 32z m416 224l-384 0c-35 0-64-29-64-64l0-64 512 0 0 64c0 35-29 64-64 64z m32-96l-448 0 0 32c0 18 14 32 32 32l384 0c18 0 32-14 32-32z"/>
<glyph unicode="&#50;" d="M192 160l-128 0 0-32 128 0z m128 0l-96 0 0-32 96 0z m128 320l-384 0c-35 0-64-29-64-64l0-320c0-35 29-64 64-64l384 0c35 0 64 29 64 64l0 320c0 35-29 64-64 64z m32-384c0-18-14-32-32-32l-384 0c-18 0-32 14-32 32l0 160 448 0z m0 192l-448 0 0 64 448 0z m0 96l-448 0 0 32c0 18 14 32 32 32l384 0c18 0 32-14 32-32z"/>
<glyph unicode="&#51;" d="M512 448c0 35-29 64-64 64l-384 0c-35 0-64-29-64-64l0-32c0-6 1-11 2-16-1-5-2-10-2-16l0-320c0-35 29-64 64-64l384 0c35 0 64 29 64 64l0 320c0 6-1 11-2 16 1 5 2 10 2 16z m-32-384c0-18-14-32-32-32l-384 0c-18 0-32 14-32 32l0 297c9-6 20-9 32-9l384 0c12 0 23 3 32 9z m0 352c0-18-14-32-32-32l-384 0c-18 0-32 14-32 32l0 32c0 18 14 32 32 32l384 0c18 0 32-14 32-32z m-48-128l-64 0c-9 0-16-7-16-16 0-9 7-16 16-16l16 0c0-71-57-128-128-128-71 0-128 57-128 128l16 0c9 0 16 7 16 16 0 9-7 16-16 16l-64 0c-9 0-16-7-16-16 0-9 7-16 16-16l16 0c0-88 72-160 160-160 88 0 160 72 160 160l16 0c9 0 16 7 16 16 0 9-7 16-16 16z"/>
<glyph unicode="&#52;" d="M284 380c-1 1-2 1-4 1-1 1-3 2-5 2 0 0 0 0 0 0-6 2-12 1-16-3l-95-95c-6-6-6-17 0-23 7-7 17-7 24 0l68 67 0-249c0-9 7-16 16-16 9 0 16 7 16 16l0 248 67-66c7-7 17-7 24 0 6 6 6 17 0 23z m116 68l-256 0c-9 0-16-7-16-16 0-9 7-16 16-16l256 0c9 0 16 7 16 16 0 9-7 16-16 16z m16 64l-288 0c-53 0-96-43-96-96l0-320c0-53 43-96 96-96l288 0c53 0 96 43 96 96l0 320c0 53-43 96-96 96z m64-416c0-35-29-64-64-64l-288 0c-35 0-64 29-64 64l0 320c0 35 29 64 64 64l288 0c35 0 64-29 64-64z"/>
<glyph unicode="&#53;" d="M400 96l-256 0c-9 0-16-7-16-16 0-9 7-16 16-16l256 0c9 0 16 7 16 16 0 9-7 16-16 16z m-141 37c1-1 2 0 3-1 3-2 6-4 10-4 5 0 9 2 12 5 0 0 0 0 0 0l95 95c6 6 6 17 0 23-7 7-17 7-24 0l-67-66 0 247c0 9-7 16-16 16-9 0-16-7-16-16l0-248-68 67c-7 7-17 7-24 0-6-6-6-17 0-23z m157 379l-288 0c-53 0-96-43-96-96l0-320c0-53 43-96 96-96l288 0c53 0 96 43 96 96l0 320c0 53-43 96-96 96z m64-416c0-35-29-64-64-64l-288 0c-35 0-64 29-64 64l0 320c0 35 29 64 64 64l288 0c35 0 64-29 64-64z"/>
<glyph unicode="&#54;" d="M478 329c2 5 3 10 0 15l-78 160c-3 5-8 7-13 7-1 1-2 1-3 1l-256 0c-1 0-2 0-3-1-5 0-10-2-13-7l-78-160c-3-5-2-10 0-15-1-3-2-6-2-9l0-288c0-18 14-32 32-32l384 0c18 0 32 14 32 32l0 288c0 3-1 6-2 9z m-104 151l62-128-121 0-22 128z m-118 0l32-128-64 0z m-32-160l64 0 0-128-64 0z m-86 160l81 0-22-128-121 0z m310-432c0-9-7-16-16-16l-352 0c-9 0-16 7-16 16l0 256c0 9 7 16 16 16l112 0 0-160 128 0 0 160 112 0c9 0 16-7 16-16z"/>
<glyph unicode="&#55;" d="M478 329c2 5 3 10 0 15l-78 160c-3 5-8 7-13 7-1 1-2 1-3 1l-256 0c-1 0-2 0-3-1-5 0-10-2-13-7l-78-160c-3-5-2-10 0-15-1-3-2-6-2-9l0-288c0-18 14-32 32-32l384 0c18 0 32 14 32 32l0 288c0 3-1 6-2 9z m-104 151l62-128-121 0-22 128z m-118 0l32-128-64 0z m-32-160l64 0 0-128-64 0z m-86 160l81 0-22-128-121 0z m310-432c0-9-7-16-16-16l-352 0c-9 0-16 7-16 16l0 256c0 9 7 16 16 16l112 0 0-160 128 0 0 160 112 0c9 0 16-7 16-16z m-256 16l32 0 0 32-32 0z m-96 0l64 0 0 32-64 0z"/>
<glyph unicode="&#56;" d="M375 416c6 9 9 20 9 32 0 35-29 64-64 64-19 0-36-9-48-22-12 13-29 22-48 22-35 0-64-29-64-64 0-12 3-23 9-32l-137 0 0-96 32 0 0-320 416 0 0 320 32 0 0 96z m-55 64c18 0 32-14 32-32 0-18-14-32-32-32-18 0-32 14-32 32 0 18 14 32 32 32z m-96 0c18 0 32-14 32-32 0-18-14-32-32-32-18 0-32 14-32 32 0 18 14 32 32 32z m32-448l-160 0 0 128 160 0z m0 160l-160 0 0 128 160 0z m192-160l-160 0 0 128 160 0z m0 160l-160 0 0 128 160 0z m32 160l-416 0 0 32 416 0z"/>
<glyph unicode="&#57;" d="M448 448l-384 0c-35 0-64-29-64-64l0-288c0-35 29-64 64-64l384 0c35 0 64 29 64 64l0 288c0 35-29 64-64 64z m32-352c0-18-14-32-32-32l-384 0c-18 0-32 14-32 32l0 288c0 18 14 32 32 32l384 0c18 0 32-14 32-32z m-176 288c-17 0-33-3-48-9-15 6-31 9-48 9-80 0-144-65-144-144 0-80 64-144 144-144 17 0 33 3 48 9 15-6 31-9 48-9 79 0 144 64 144 144 0 79-65 144-144 144z m-96-256c-62 0-112 50-112 112 0 62 50 112 112 112 2 0 4-1 6-1-33-26-54-66-54-111 0-45 21-85 54-111-2-1-4-1-6-1z m96 0c-62 0-112 50-112 112 0 62 50 112 112 112 62 0 112-50 112-112 0-62-50-112-112-112z"/>
<glyph unicode="&#33;" d="M448 448l-384 0c-35 0-64-29-64-64l0-288c0-35 29-64 64-64l384 0c35 0 64 29 64 64l0 288c0 35-29 64-64 64z m32-352c0-18-14-32-32-32l-88 0 120 120z m0 136l-168-168-248 0c-18 0-32 14-32 32l0 288c0 18 14 32 32 32l384 0c18 0 32-14 32-32z m-224 120c-53 0-96-43-96-96 0-53 43-96 96-96 53 0 96 43 96 96 0 53-43 96-96 96z m0-160c-35 0-64 29-64 64 0 35 29 64 64 64 35 0 64-29 64-64 0-35-29-64-64-64z"/>
<glyph unicode="&#34;" d="M416 416l-64 0 0 16c0 44-36 80-80 80l-32 0c-44 0-80-36-80-80l0-16-64 0c-18 0-32-14-32-32l0-352c0-18 14-32 32-32l320 0c18 0 32 14 32 32l0 352c0 18-14 32-32 32z m-224 16c0 26 21 48 48 48l32 0c27 0 48-22 48-48l0-16-128 0z m224-384c0-9-7-16-16-16l-288 0c-9 0-16 7-16 16l0 48 320 0z m0 80l-320 0 0 240c0 9 7 16 16 16l48 0 0-64 32 0 0 64 128 0 0-64 32 0 0 64 48 0c9 0 16-7 16-16z"/>
<glyph unicode="&#35;" d="M416 448l-66 0c-7 36-39 64-78 64l-32 0c-39 0-71-28-78-64l-66 0c-18 0-32-14-32-32l0-384c0-18 14-32 32-32l320 0c18 0 32 14 32 32l0 384c0 18-14 32-32 32z m-176 32l32 0c21 0 38-13 45-32l-122 0c7 19 24 32 45 32z m176-432c0-9-7-16-16-16l-288 0c-9 0-16 7-16 16l0 48 320 0z m0 80l-320 0 0 272c0 9 7 16 16 16l48 0 0-96 32 0 0 96 128 0 0-96 32 0 0 96 48 0c9 0 16-7 16-16z"/>
<glyph unicode="&#36;" d="M160 64c-18 0-32-14-32-32 0-18 14-32 32-32 18 0 32 14 32 32 0 18-14 32-32 32z m224 0c-18 0-32-14-32-32 0-18 14-32 32-32 18 0 32 14 32 32 0 18-14 32-32 32z m96 128c18 0 32 14 32 32l0 256c0 18-14 32-32 32l-480 0 0-32 64 0 0-384 448 0 0 32-416 0 0 64z m-384 272c0 9 7 16 16 16l352 0c9 0 16-7 16-16l0-224c0-9-7-16-16-16l-352 0c-9 0-16 7-16 16z"/>
<glyph unicode="&#37;" d="M160 64c-18 0-32-14-32-32 0-18 14-32 32-32 18 0 32 14 32 32 0 18-14 32-32 32z m224 0c-18 0-32-14-32-32 0-18 14-32 32-32 18 0 32 14 32 32 0 18-14 32-32 32z m64 128c18 0 32 14 32 32l32 256c0 18-14 32-32 32l-480 0 0-32 64 0 0-384 416 0 0 32-384 0 0 64z m-352 272c0 9 7 16 16 16l352 0c9 0 16-7 16-16l-32-224c0-9-7-16-16-16l-320 0c-9 0-16 7-16 16z"/>
<glyph unicode="&#38;" d="M288 64c0-35 29-64 64-64 35 0 64 29 64 64 0 35-29 64-64 64-35 0-64-29-64-64z m64 32c18 0 32-14 32-32 0-18-14-32-32-32-18 0-32 14-32 32 0 18 14 32 32 32z m-256-32c0-35 29-64 64-64 35 0 64 29 64 64 0 35-29 64-64 64-35 0-64-29-64-64z m64 32c18 0 32-14 32-32 0-18-14-32-32-32-18 0-32 14-32 32 0 18 14 32 32 32z m352 337c0 1-1 2-1 2 0 2 0 3-1 5 0 0-1 0-1 0-1 2-2 3-3 4-1 1-1 1-1 1-2 1-3 2-5 2 0 0 0 0-1 1 0 0-1 0-2 0 0 0-1 0-1 0l-3 0c0 0 0 0-1 0l-91 0-92 54c-13 13-33 13-46 0l-75-54-92 0 0 32 16 0c9 0 16 7 16 16 0 9-7 16-16 16l-96 0c-9 0-16-7-16-16 0-9 7-16 16-16l48 0 0-336c0-9 7-16 16-16l400 0c9 0 16 7 16 16 0 9-7 16-16 16l-384 0 0 33 348 32c0 0 0-1 1-1 9-2 18 3 21 12l45 191c1 1 0 2 1 3 0 1 0 1 0 2 0 0 0 1 0 1z m-226 46l53-31-99 0z m149-224l-339-31 0 192 378 0z"/>
<glyph unicode="&#39;" d="M288 64c0-35 29-64 64-64 35 0 64 29 64 64 0 35-29 64-64 64-35 0-64-29-64-64z m64 32c18 0 32-14 32-32 0-18-14-32-32-32-18 0-32 14-32 32 0 18 14 32 32 32z m160 337c0 1-1 2-1 2 0 2 0 3-1 5 0 0-1 0-1 0-1 2-2 3-3 4-1 1-1 1-1 1-2 1-3 2-5 2 0 0 0 0-1 1 0 0-1 0-2 0 0 0-1 0-1 0l-3 0c0 0 0 0-1 0l-396 0 0 32 16 0c9 0 16 7 16 16 0 9-7 16-16 16l-96 0c-9 0-16-7-16-16 0-9 7-16 16-16l48 0 0-336c0-9 7-16 16-16l400 0c9 0 16 7 16 16 0 9-7 16-16 16l-384 0 0 33c0 0 348 31 349 31 9-2 18 3 21 12l45 191c1 1 0 2 1 3 0 1 0 1 0 2 0 0 0 1 0 1z m-77-178l-339-31 0 192 378 0z m-339-191c0-35 29-64 64-64 35 0 64 29 64 64 0 35-29 64-64 64-35 0-64-29-64-64z m64 32c18 0 32-14 32-32 0-18-14-32-32-32-18 0-32 14-32 32 0 18 14 32 32 32z"/>
<glyph unicode="&#40;" d="M229 283c-6-6-6-17 0-23l63-63c0 0 0 0 1 0 2-3 6-5 11-5 0 0 0 0 0 0 1 0 1 0 2 0 3 1 6 2 8 4 1 0 2 0 2 1l63 63c7 6 7 17 0 23-6 7-17 7-23 0l-36-36 0 153c0 9-7 16-16 16-9 0-16-7-16-16l0-152-35 35c-7 7-17 7-24 0z m27-251c0-18-14-32-32-32-18 0-32 14-32 32 0 18 14 32 32 32 18 0 32-14 32-32z m160 0c0-18-14-32-32-32-18 0-32 14-32 32 0 18 14 32 32 32 18 0 32-14 32-32z m96 302c0 0 0 1 0 2 0 2-1 5-2 7 0 1-1 2-2 3-1 2-3 4-6 5 0 0-1 0-1 1-2 0-3 0-5 0 0 0 0 0 0 0l0 0c-1 0-1 0-1 0l-143 0 0-32 124 0-56-192-212 0c-1 0-2 0-3-1l-45 193 96 0 0 32-103 0-26 109c1 1 1 2 1 3 0 8-6 14-13 15-1 1-2 1-3 1 0 0 0 0 0 0l-96 0c-9 0-16-7-16-16 0-9 7-16 16-16l83 0 79-340c2-7 8-12 14-12l0 0 240 0c0 0 0 0 0 0 1 0 2 0 2 0 8 2 14 8 14 16 0 1 0 1 0 2l64 218c0 1-1 1 0 2z"/>
<glyph unicode="&#41;" d="M256 32c-18 0-32-14-32-32 0-18 14-32 32-32 18 0 32 14 32 32 0 18-14 32-32 32z m288 270c0 0 0 1 0 2 0 2-1 5-2 7 0 1-1 2-2 3-1 2-3 4-6 5 0 0-1 0-1 1-2 0-3 0-5 0 0 0 0 0 0 0l0 0c-1 0-1 0-1 0l-57 0-98 86c-12 13-32 13-45 0l-87-86-55 0-26 109c1 1 1 2 1 3 0 8-6 14-13 15-1 1-2 1-3 1 0 0 0 0 0 0l-96 0c-9 0-16-7-16-16 0-9 7-16 16-16l83 0 79-340c3-9 11-14 19-12 1 1 2 2 3 3 2-2 5-3 8-3l224 0c0 0 0 0 0 0 1 0 2 0 3 0 7 2 13 8 13 16 0 1 0 1 0 2l64 218c0 1-1 1 0 2z m-194 81l71-63-133 0z m102-287l-212 0c-1 0-2 0-3-1l-45 193 316 0z m-36-64c-18 0-32-14-32-32 0-18 14-32 32-32 18 0 32 14 32 32 0 18-14 32-32 32z"/>
<glyph unicode="&#42;" d="M256 32c0-18-14-32-32-32-18 0-32 14-32 32 0 18 14 32 32 32 18 0 32-14 32-32z m256 304c0 2-1 5-2 7 0 1-1 2-2 3-1 2-3 4-6 5 0 0-1 0-1 1-2 0-3 0-5 0 0 0 0 0 0 0l0 0c-1 0-1 0-1 0l-342 0-26 109c1 1-5 17-13 18 0 1-1 1-2 1 0 0 0 0 0 0l-96 0c-9 0-16-7-16-16 0-9 7-16 16-16l83 0 79-340c2-7 8-12 15-12l0 0 239 0c0 0 0 0 0 0 1 0 2 0 3 0 7 2 13 17 13 18l64 218c0 1-1 1 0 2 0 0 0 1 0 2z m-92-208c0 0-214 0-215-1l-45 193 316 0z m-4-96c0-18-14-32-32-32-18 0-32 14-32 32 0 18 14 32 32 32 18 0 32-14 32-32z"/>
<glyph unicode="&#43;" d="M496 352l-96 0 38 64 42 0 0 32-64-5-54-91-212 0-54 91-64 5 0-32 42 0 38-64-96 0c-9 0-16-7-16-16 0-9 7-16 16-16l19 0 29-288 384 0 29 288 19 0c9 0 16 7 16 16 0 9-7 16-16 16z m-336-288l-64 0-8 64 72 0z m0 96l-76 0-8 64 84 0z m0 96l-88 0-8 64 96 0z m160-192l-128 0 0 64 128 0z m0 96l-128 0 0 64 128 0z m0 96l-128 0 0 64 128 0z m96-192l-64 0 0 64 72 0z m12 96l-76 0 0 64 84 0z m12 96l-88 0 0 64 96 0z"/>
<glyph unicode="&#44;" d="M512 320l-64 192-384 0-64-192 0 0c0-29 12-58 32-77l0-243 448 0 0 238c24 18 32 50 32 82z m-427 160l342 0 42-128-426 0z m363-448l-384 0 0 64 384 0z m0 96l-384 0 0 98c5-1 10-2 15-2 24 0 50 12 65 32 13-20 30-32 56-32 23 0 43 15 56 32 13-17 33-32 56-32 26 0 43 12 56 32 15-20 40-32 64-32 6 0 11 1 16 2z m-15 128c-49 0-49 32-49 32l-32 0c0 0 0-32-40-32-40 0-39 32-39 32l-34 0c0 0 1-32-39-32-40 0-40 32-40 32l-32 0c0-32-27-32-49-32-23 0-41 36-47 64l448 0c0 0 0-64-47-64z"/>
<glyph unicode="&#45;" d="M390 480c2-12 3-25 3-38 0-172-145-311-323-311-24 0-47 3-70 7 46-82 136-138 240-138 150 0 272 117 272 262 0 91-48 171-122 218z m-150-447c-63 0-123 24-167 65 183 2 333 136 352 308 34-40 53-91 53-144 0-127-107-229-238-229z"/>
<glyph unicode="&#46;" d="M256 256c0 113 84 206 192 221-38 22-81 35-128 35-141 0-256-115-256-256 0-141 115-256 256-256 47 0 90 13 128 35-109 15-192 108-192 221z m64-224c-124 0-224 100-224 224 0 123 100 224 224 224 11 0 22-1 33-2-78-45-129-129-129-222 0-93 51-177 129-222-11-1-22-2-33-2z"/>
<glyph unicode="&#47;" d="M304 96l-224 0c-9 0-16-7-16-16 0-9 7-16 16-16l224 0c9 0 16 7 16 16 0 9-7 16-16 16z m-32-64l-160 0c-9 0-16-7-16-16 0-9 7-16 16-16l160 0c9 0 16 7 16 16 0 9-7 16-16 16z m-6 128c-6 20-10 42-10 64 0 113 84 206 192 221-38 22-81 35-128 35-141 0-256-115-256-256 0-22 3-44 8-64l-72 0 0-32 512 0 0 32z m-160 0c-6 20-10 42-10 64 0 123 100 224 224 224 11 0 22-1 33-2-78-45-129-129-129-222 0-22 3-43 8-64z"/>
<glyph unicode="&#58;" d="M381 224l-349 0 0-32 349 0c37 0 66-29 66-64 0-35-29-64-66-64l-29 0 0-32 29 0c55 0 99 43 99 96 0 53-44 96-99 96z m3 128l-224 0 0-32 224 0z m96 0c0 52-43 94-96 96l0-32c35-2 63-29 63-64 0-35-28-62-63-64l0 0-288 0 0-32 285 0c55 0 99 43 99 96z m-416-224l192 0 0 32-192 0z"/>
<glyph unicode="&#59;" d="M384 224l-320 0 0-32 320 0c35 0 64-29 64-64 0-35-29-64-64-64l-32 0 0-32 32 0c53 0 96 43 96 96 0 53-43 96-96 96z m96 128c0 53-43 96-96 96l0-32c35 0 64-29 64-64 0-35-29-64-64-64l-288 0 0-32 288 0c53 0 96 43 96 96z m-96 0l-224 0 0-32 224 0z m-128-192l-128 0 0-32 128 0c18 0 32-14 32-32 0-18-14-32-32-32l0-32c35 0 64 29 64 64 0 35-29 64-64 64z"/>
<glyph unicode="&#60;" d="M320 448c-71 0-133-39-166-97-3 0-7 1-10 1-80 0-144-65-144-144 0-80 64-144 144-144l176 0c106 0 192 86 192 192 0 106-86 192-192 192z m32-352l-224 0c-54 8-96 56-96 112 0 62 50 112 112 112 10 0 19-2 28-4 24 59 81 100 148 100 88 0 160-72 160-160 0-77-55-145-128-160z"/>
<glyph unicode="&#61;" d="M320 480c-71 0-133-39-166-97-3 0-7 1-10 1-80 0-144-65-144-144 0-74 56-134 128-142l0 32c-54 7-96 54-96 110 0 62 50 112 112 112 10 0 19-2 28-4 24 59 81 100 148 100 88 0 160-72 160-160 0-66-40-122-96-147l0-33c74 26 128 96 128 180 0 106-86 192-192 192z m-17-347c0 1-1 2-2 3 0 1 0 1-1 2-1 1-2 2-3 3 0 0-1 1-1 1 0 0 0 0-1 0-1 1-2 1-3 1-1 0-2 1-3 1 0 0-1 0-1 0l-52 0 50 88c4 7 2 17-6 22-8 4-17 2-22-6l-64-112c0 0 0-1 0-1-1-1-1-2-1-2 0-2-1-3-1-4 0 0 0-1 0-1 0-1 0-1 0-2 1-1 1-2 1-3 0-1 1-2 2-3 0-1 0-2 1-2 1-1 2-2 3-3 0 0 1-1 1-1 0 0 0 0 1 0 1-1 2-1 3-1 1-1 2-1 3-1 0 0 1 0 1 0l52 0-50-88c-4-7-2-17 6-22 8-4 17-2 22 6l64 112c0 0 0 1 0 1 1 1 1 2 1 2 0 2 1 3 1 4 0 0 0 1 0 1 0 1 0 1 0 2-1 1-1 2-1 3z"/>
<glyph unicode="&#62;" d="M256 0l32 0 0 96-32 0z m-96 0l32 0 0 96-32 0z m192 0l32 0 0 96-32 0z m-32 512c-71 0-133-39-166-97-3 0-7 1-10 1-80 0-144-65-144-144 0-80 64-144 144-144l160 0c0 0 11 0 16 0 106 0 192 86 192 192 0 106-86 192-192 192z m0-352c-5 0-16 0-16 0l-160 0c-62 0-112 50-112 112 0 62 50 112 112 112 10 0 19-2 28-4 24 59 81 100 148 100 88 0 160-72 160-160 0-88-72-160-160-160z"/>
<glyph unicode="&#63;" d="M192 96l-32 0 0-32 32 0z m96-96l32 0 0 32-32 0z m-96 0l32 0 0 32-32 0z m128 512c-71 0-133-39-166-97-3 0-7 1-10 1-80 0-144-65-144-144 0-80 64-144 144-144l176 0c106 0 192 86 192 192 0 106-86 192-192 192z m32-352l-224 0c-54 8-96 56-96 112 0 62 50 112 112 112 10 0 19-2 28-4 24 59 81 100 148 100 88 0 160-72 160-160 0-77-55-145-128-160z m-64-64l-32 0 0-32 32 0z m64-32l32 0 0 32-32 0z"/>
<glyph unicode="&#64;" d="M128 256l-96 0 0-32 96 0z m160 224l-32 0 0-96 32 0z m-197-398l23-23 45 45-23 23z m362 316l-23 23-45-45 23-23z m-37-142l0-32 96 0 0 32z m-144 96c-62 0-112-50-112-112 0-62 50-112 112-112 62 0 112 50 112 112 0 62-50 112-112 112z m0-192c-44 0-80 36-80 80 0 44 36 80 80 80 44 0 80-36 80-80 0-44-36-80-80-80z m113-56l45-45 23 23-45 45z m-129-104l32 0 0 96-32 0z m-165 398l45-45 23 23-45 45z"/>
<glyph unicode="&#91;" d="M453 398l-23 23-45-45 23-23z m-357-142l-64 0 0-32 64 0z m63 120l-45 45-23-23 45-45z m129 104l-32 0 0-64 32 0z m-197-398l23-23 45 45-23 23z m165-82l32 0 0 64-32 0z m192 256l0-32 64 0 0 32z m-63-152l45-45 23 23-45 45z m-113 280c-80 0-144-65-144-144 0-80 64-144 144-144 80 0 144 64 144 144 0 79-65 144-144 144z m0-256c-62 0-112 50-112 112 0 62 50 112 112 112 62 0 112-50 112-112 0-62-50-112-112-112z"/>
<glyph unicode="&#93;" d="M42 192c-6 20-10 42-10 64 0 124 100 224 224 224 124 0 224-100 224-224 0-22-4-44-10-64l34 0c5 20 8 42 8 64 0 141-115 256-256 256-141 0-256-115-256-256 0-22 3-44 8-64z m214-192c45 0 87 12 124 32l-248 0c37-20 79-32 124-32z m-208 64l416 0 0 32-416 0z m-48 64l512 0 0 32-512 0z"/>
<glyph unicode="&#94;" d="M256 512c0 0-160-221-160-336 0-115 45-176 160-176 115 0 160 61 160 176 0 115-160 336-160 336z m0-480c-94 0-128 33-128 134 0 100 128 298 128 298 0 0 128-198 128-298 0-101-34-134-128-134z"/>
<glyph unicode="&#95;" d="M100 355l-46 45-22-22 45-46z m-4-163c0 88 72 160 160 160 88 0 160-72 160-160l32 0c0 106-86 192-192 192-106 0-192-86-192-192z m176 288l-32 0 0-64 32 0z m208-102l-22 22-46-45 23-23z m-400-378l352 0 0 32-352 0z m-80 160l0-32 512 0 0 32z m32-96l448 0 0 32-448 0z"/>
<glyph unicode="&#96;" d="M480 314l-22 22-46-45 23-23z m-208 102l-32 0 0-64 32 0z m-272-288l0-32 512 0 0 32z m100 163l-46 45-22-22 45-46z m-1-131c15 73 79 128 157 128 78 0 142-55 157-128l32 0c-16 91-94 160-189 160-95 0-173-69-189-160z"/>
<glyph unicode="&#123;" d="M96 0l32 0 0 80-32 0z m96 0l32 0 0 80-32 0z m192 0l32 0 0 80-32 0z m2 429c-23 49-73 83-130 83-63 0-117-41-136-98-68-12-120-71-120-142 0-80 64-144 144-144l224 0 0 1c80 4 144 70 144 151 0 75-55 137-126 149z m-18-268l0-1-224 0c-62 0-112 50-112 112 0 62 50 112 112 112 1 0 1 0 2 0 7 54 54 96 110 96 51 0 93-34 107-80 65-2 117-55 117-120 0-64-50-115-112-119z m-80-161l32 0 0 80-32 0z"/>
<glyph unicode="&#124;" d="M386 429c-23 49-73 83-130 83-63 0-117-41-136-98-68-12-120-71-120-142 0-74 56-134 128-142l0 32c-54 7-96 54-96 110 0 62 50 112 112 112 1 0 1 0 2 0 7 54 54 96 110 96 51 0 93-34 107-80 65-2 117-55 117-120 0-58-41-106-96-118l0-32c72 12 128 74 128 150 0 75-55 137-126 149z m-83-296c0 1-1 2-2 3 0 1 0 1-1 2-1 1-2 2-3 3 0 0-1 1-1 1 0 0 0 0-1 0-1 1-2 1-3 1-1 0-2 1-3 1 0 0-1 0-1 0l-52 0 50 88c4 7 2 17-6 22-8 4-17 2-22-6l-64-112c0 0 0-1 0-1-1-1-1-2-1-2 0-2-1-3-1-4 0 0 0-1 0-1 0-1 0-1 0-2 1-1 1-2 1-3 0-1 1-2 2-3 0-1 0-2 1-2 1-1 2-2 3-3 0 0 1-1 1-1 0 0 0 0 1 0 1-1 2-1 4-1 0-1 1-1 2-1 0 0 1 0 1 0l53 0-51-88c-4-7-2-17 6-22 8-4 18-2 22 6l64 112c0 0 0 1 0 1 1 1 1 2 1 2 0 2 1 3 1 4 0 0 0 1 0 1 0 1 0 1 0 2-1 1-1 2-1 3z"/>
<glyph unicode="&#125;" d="M386 365c-23 49-72 83-130 83-63 0-117-41-136-98-68-12-120-71-120-142 0-80 64-144 144-144l224 0 0 1c80 4 144 70 144 151 0 75-55 137-126 149z m-18-268l0-1-224 0c-62 0-112 50-112 112 0 62 50 112 112 112 1 0 1 0 2 0 7 54 54 96 110 96 51 0 93-34 107-80 65-2 117-55 117-120 0-64-50-115-112-119z"/>
<glyph unicode="&#126;" d="M16 480c-9 0-16-7-16-16l0-448c0-9 7-16 16-16 9 0 16 7 16 16l0 448c0 9-7 16-16 16z m448-32l-384 32c-9 0-16-7-16-16l0-16 32 0 128-12 0-152-128-12 0 144-32 0 0-160c0-9 7-16 16-16l384 32c9 0 16 7 16 16l0 144c0 9-7 16-16 16z m-112-153l-96-8 0 146 96-8z m96 9l-64-6 0 124 64-6z"/>
<glyph unicode="&#92;" d="M80 352l288 0c9 0 16 7 16 16 0 9-7 16-16 16l-288 0c-9 0-16-7-16-16 0-9 7-16 16-16z m0-96l192 0c9 0 16 7 16 16 0 9-7 16-16 16l-192 0c-9 0-16-7-16-16 0-9 7-16 16-16z m0 192l288 0c9 0 16 7 16 16 0 9-7 16-16 16l-288 0c-9 0-16-7-16-16 0-9 7-16 16-16z m96-256l-96 0c-9 0-16-7-16-16 0-9 7-16 16-16l96 0c9 0 16 7 16 16 0 9-7 16-16 16z m272 288l0-242c-35 25-93 24-145-7-65-39-96-109-69-158 27-48 101-55 167-16 49 29 79 77 79 119l0 0 0 304z m-65-394c-50-30-104-29-122 2-17 32 9 83 60 114 50 30 104 29 122-3 17-31-9-82-60-113z"/>
<glyph unicode="&#57344;" d="M480 512l-384 0c-18 0-32-14-32-32l-32 0c-18 0-32-14-32-32l0-384c0-18 14-32 32-32l32 0c0-18 14-32 32-32l384 0c18 0 32 14 32 32l0 448c0 18-14 32-32 32z m-416-448l-16 0c-9 0-16 7-16 16l0 352c0 9 7 16 16 16l16 0z m416-16c0-9-7-16-16-16l-352 0c-9 0-16 7-16 16l0 416c0 9 7 16 16 16l352 0c9 0 16-7 16-16z"/>
<glyph unicode="&#57345;" d="M384 477l0 3c0 18-14 32-32 32l-320 0c-18 0-32-14-32-32l0-448c0-18 14-32 32-32l320 0c18 0 32 14 32 32l0 2c76 45 128 127 128 222 0 95-52 177-128 221z m-32-429c0-9-7-16-16-16l-288 0c-9 0-16 7-16 16l0 416c0 9 7 16 16 16l288 0c9 0 16-7 16-16l0-128c-53 0-96-43-96-96 0-53 43-96 96-96z m32 25l0 103-32 0c-35 0-64 29-64 64 0 35 29 64 64 64l32 0 0 135c58-40 96-107 96-183 0-76-38-143-96-183z"/>
<glyph unicode="&#57346;" d="M32 0l448 0 0 32-448 0z m448 512l-448 0c-18 0-32-14-32-32l0-384c0-18 14-32 32-32l448 0c18 0 32 14 32 32l0 384c0 18-14 32-32 32z m0-400c0-9-7-16-16-16l-416 0c-9 0-16 7-16 16l0 352c0 9 7 16 16 16l416 0c9 0 16-7 16-16z m-64 336l-224-39 0-159c-21 7-48 7-72-4-43-18-66-57-52-87 13-30 58-40 100-21 43 18 70 56 56 86l0 164 160 28 0-132c-20 6-45 6-70-4-42-16-67-54-55-86 12-31 56-44 99-28 42 17 70 58 58 90z m-256-279c-25-13-53-12-62 1-8 12 5 33 30 45 25 12 53 12 62-1 8-13-5-33-30-45z m192 32c-25-13-53-12-62 1-8 12 5 33 30 45 25 12 53 12 62-1 8-13-5-33-30-45z"/>
<glyph unicode="&#57347;" d="M32 0l448 0 0 32-448 0z m448 512l-448 0c-18 0-32-14-32-32l0-384c0-18 14-32 32-32l448 0c18 0 32 14 32 32l0 384c0 18-14 32-32 32z m0-400c0-9-7-16-16-16l-416 0c-9 0-16 7-16 16l0 352c0 9 7 16 16 16l416 0c9 0 16-7 16-16z m-192 140c-22 8-51 5-78-10-41-22-61-63-44-90 17-28 64-32 104-10 37 20 56 55 48 82l2 0 0 224-32 0z m-32-83c-25-12-53-12-61 1-9 12 4 33 29 45 25 12 53 12 61-1 9-13-4-33-29-45z"/>
<glyph unicode="&#57348;" d="M480 512l-384 0c-18 0-32-14-32-32l-32 0c-18 0-32-14-32-32l0-384c0-18 14-32 32-32l32 0c0-18 14-32 32-32l384 0c18 0 32 14 32 32l0 448c0 18-14 32-32 32z m-416-448l-16 0c-9 0-16 7-16 16l0 352c0 9 7 16 16 16l16 0z m416-16c0-9-7-16-16-16l-352 0c-9 0-16 7-16 16l0 416c0 9 7 16 16 16l352 0c9 0 16-7 16-16z m-128 172c-22 8-51 5-79-10-40-22-60-63-43-90 17-28 64-32 104-10 37 20 59 55 51 81l-1 225-32 0z m-32-83c-25-12-53-12-61 1-9 12 4 33 29 45 25 12 53 12 61-1 9-13-4-33-29-45z"/>
<glyph unicode="&#57349;" d="M512 480l0 2-320-66 0-236c-31 18-79 16-123-9-57-34-84-94-61-135 24-42 89-48 147-15 45 27 71 70 68 107l1 0 0 163 256 55 0-102c-31 18-79 16-123-9-57-34-84-94-61-135 24-42 89-48 147-15 45 27 71 70 68 107l1 0 0 288z m-374-430c-42-25-87-24-102 2-14 25 8 66 50 90 42 25 87 24 102-2 14-25-8-66-50-90z m288 64c-42-25-87-24-102 2-14 25 8 66 50 90 41 25 87 24 102-2 14-25-8-66-50-90z m-202 213l0 60 256 55 0-63z"/>
<glyph unicode="&#57350;" d="M192 416l0-236c-31 18-79 16-123-9-57-34-84-94-61-135 24-42 89-48 147-15 45 27 71 70 68 107l1 0 0 259 256 55 0-198c-31 18-79 16-123-9-57-34-84-94-61-135 24-42 89-48 147-15 45 27 71 70 68 107l1 0 0 288z m-54-366c-42-25-87-24-102 2-14 25 8 66 50 90 41 25 87 24 102-2 14-25-8-66-50-90z m288 64c-42-25-87-24-102 2-14 25 8 66 50 90 41 25 87 24 102-2 14-25-8-66-50-90z"/>
<glyph unicode="&#57351;" d="M352 480l0-242c-35 25-93 24-145-7-65-39-96-109-69-157 27-49 101-56 167-17 49 29 79 77 79 119l0 0 0 304-32 0z m-65-394c-50-30-104-29-122 2-17 32 9 83 60 114 50 30 104 29 122-3 17-31-9-82-60-113z"/>
<glyph unicode="&#57352;" d="M320 480l-10 0 0 0 0 0-22 0 0-22 0 0 0 0 0-252c-35 25-93 24-145-7-65-39-96-109-69-157 27-49 101-56 167-17 49 29 79 77 79 119l0 0 0 297 106-81 22 22z m-97-426c-50-30-104-29-122 2-17 32 9 83 60 114 50 30 104 29 122-3 17-31-9-82-60-113z"/>
<glyph unicode="&#57353;" d="M256 512c-141 0-256-115-256-256 0-141 115-256 256-256 141 0 256 115 256 256 0 141-115 256-256 256z m0-480c-124 0-224 100-224 224 0 124 100 224 224 224 124 0 224-100 224-224 0-124-100-224-224-224z m91 288l38 0c-20 38-59 64-105 64-46 0-85-26-106-64l-30 0c-9 0-16-7-16-16 0-9 7-16 16-16l18 0c-1-8-2-16-2-24 0-3 1-5 1-8l-17 0c-9 0-16-7-16-16 0-9 7-16 16-16l23 0c17-47 61-80 113-80 39 0 74 19 95 48l-45 0c-14-10-31-16-50-16-34 0-63 20-78 48l86 0c9 0 16 7 16 16 0 9-7 16-16 16l-95 0c0 3-1 5-1 8 0 8 2 16 4 24l92 0c9 0 16 7 16 16 0 9-7 16-16 16l-75 0c16 19 40 32 67 32 27 0 51-13 67-32z"/>
<glyph unicode="&#57354;" d="M426 388c-21 59-67 114-74 122l0 2-32 0 0-9 0 0 0 0 0-503 32 0 0 224 96 0 0 8 0 0c0 0 4 82-22 156z m-74-132l0 203c17-25 36-58 48-92 14-42 18-83 18-111z m-128 128l-32 0 0 128-32 0 0-128-32 0 0 128-32 0 0-192c0-35 29-64 64-64l0-256 32 0 0 256c35 0 64 29 64 64l0 192-32 0z m0-64c0-18-14-32-32-32l-32 0c-18 0-32 14-32 32l0 32 96 0z"/>
<glyph unicode="&#57355;" d="M368 512c-62 0-112-57-112-128 0-65 42-117 96-126l0-258 32 0 0 258c54 9 96 61 96 126 0 71-50 128-112 128z m0-224c-44 0-80 43-80 96 0 53 36 96 80 96 44 0 80-43 80-96 0-53-36-96-80-96z m-208 96l-32 0 0 128-32 0 0-128-32 0 0 128-32 0 0-189c0-37 29-67 64-67l0-256 32 0 0 256c35 0 64 30 64 67l0 189-32 0z m0-62c0-19-14-34-32-34l-32 0c-18 0-32 15-32 34l0 29 96 0z"/>
<glyph unicode="&#97;" d="M447 447c-40 40-106 52-172-14-46-46-74-114-73-163l-61-61c-25 25-66 25-91 0-25-25-25-66 0-91 14-13 32-19 50-18-1-18 5-36 18-49 26-25 66-25 91 0 25 24 25 65 0 90 0 0 0 0 0 0l62 62c50-1 117 26 163 72 66 66 53 132 13 172z m-267-290c0 0 0 0 0 0l-16-16 21-22c7-5 11-14 11-23 0-18-14-32-32-32-17 0-32 14-32 32 0 9 4 16 9 22l-23 23c-6-6-14-9-22-9-18 0-33 14-33 32 1 18 15 32 33 32 10 0 19-5 24-12l21-21 70 71c3-5 5-10 9-13 4-4 9-7 14-10z m228 137c-54-54-136-80-165-51-29 29-3 110 51 164 54 54 102 46 130 17 29-28 38-77-16-130z"/>
<glyph unicode="&#98;" d="M384 480l-256 0c-53 0-96-46-96-108 0-50 27-73 64-81l0-241c0-28 21-50 48-50l224 0c26 0 48 22 48 50l0 241c37 8 64 31 64 80 0 63-43 109-96 109z m0-159l0-257c0-18-14-32-32-32l-192 0c-18 0-32 14-32 32l0 257c-37 3-64 18-64 54 0 42 32 73 64 73l32 0c0 0 0 0 0 0l192 0c0 0 0 0 0 0l32 0c32 0 64-31 64-73 0-36-27-51-64-54z"/>
<glyph unicode="&#99;" d="M256 512c-106 0-192-147-192-288 0-141 86-224 192-224 106 0 192 83 192 224 0 141-86 288-192 288z m0-480c-88 0-160 68-160 192 0 124 72 256 160 256 88 0 160-132 160-256 0-124-72-192-160-192z"/>
<glyph unicode="&#100;" d="M480 288l-64 0c-1 0-1 0-2 0 0 0 0 0 0 0l2 0 0 32-416 0 0-32 2 0c-1-5-2-11-2-16 0-144 93-208 208-208 84 0 157 26 189 103 6-4 12-7 19-7l64 0c18 0 32 14 32 32l0 64c0 18-14 32-32 32z m-272-192c-84 0-154 36-171 128l344 0c-17-103-88-128-173-128z m175 160l-350 0c0 5-1 10-1 16 0 5 1 11 2 16l348 0c1-5 2-11 2-16 0-6 0-11-1-16z m97-32l0-32-64 0 0 48c0 9 7 16 16 16l32 0c9 0 16-7 16-16z m-160 224l-32 0 0-96 32 0z m-96 32l-32 0 0-128 32 0z m-96-32l-32 0 0-96 32 0z m240-416l-320 0c-9 0-16-7-16-16 0-9 7-16 16-16l320 0c9 0 16 7 16 16 0 9-7 16-16 16z"/>
<glyph unicode="&#101;" d="M464 448l-275 0-34 64-27-17 26-47-106 0c-9 0-16-7-16-16l0-96c0-9 7-16 16-16l51 0 29-320 256 0 29 320 51 0c9 0 16 7 16 16l0 96c0 9-7 16-16 16z m-400-96l0 64 107 0 21-38 0-26z m288-320l-192 0-29 288 61 0 0-224 32 0 0 224 157 0z m96 320l-224 0 0 32-1 0 1 0-17 32 241 0z"/>
<glyph unicode="&#102;" d="M256 512c-106 0-160-43-160-96 0 0 0 0 0 0l0-320c0-53 54-96 160-96 106 0 160 43 160 96l0 320c0 0 0 0 0 0 0 53-54 96-160 96z m128-416c0-35-40-64-128-64-88 0-128 29-128 64l0 259c26-21 69-35 128-35 59 0 102 14 128 35z m-128 256c-88 0-128 29-128 64 0 35 40 64 128 64 88 0 128-29 128-64 0-35-40-64-128-64z"/>
<glyph unicode="&#103;" d="M96 512l0-32c0 0 0-13 0-48 0-125 70-228 160-239l0-161-64 0c-9 0-16-7-16-16 0-9 7-16 16-16l160 0c9 0 16 7 16 16 0 9-7 16-16 16l-64 0 0 161c90 11 160 114 160 239 0 18 0 48 0 48l0 32z m320-80c0-116-63-210-144-210-81 0-144 94-144 210 0 17-1 33 2 48l284 0c3-15 2-31 2-48z"/>
<glyph unicode="&#104;" d="M96 512l0-32c0 0 0-13 0-48 0-125 70-228 160-239l0-161-64 0c-9 0-16-7-16-16 0-9 7-16 16-16l160 0c9 0 16 7 16 16 0 9-7 16-16 16l-64 0 0 161c90 11 160 114 160 239 0 18 0 48 0 48l0 32z m176-290c-63 0-114 57-135 136 23 15 84 45 135-6 58-58 103-24 135 7-20-80-72-137-135-137z m144 210c0-12-1-23-2-34-32-32-79-77-142-14-56 56-124 14-140 3-3 14-4 29-4 45 0 17-1 33 2 48l284 0c3-15 2-31 2-48z"/>
<glyph unicode="&#105;" d="M448 384c0 64-32 128-32 128l-288 0c0 0-32-64-32-128 0-125 70-180 160-191l0-161-64 0c-9 0-16-7-16-16 0-9 7-16 16-16l160 0c9 0 16 7 16 16 0 9-7 16-16 16l-64 0 0 161c90 11 160 66 160 191z m-176-162c-81 0-144 46-144 162 0 64 15 81 18 96l252 0c3-15 18-32 18-96 0-116-63-162-144-162z"/>
<glyph unicode="&#106;" d="M448 384c0 64-32 128-32 128l-288 0c0 0-32-64-32-128 0-125 70-180 160-191l0-161-64 0c-9 0-16-7-16-16 0-9 7-16 16-16l160 0c9 0 16 7 16 16 0 9-7 16-16 16l-64 0 0 161c90 11 160 66 160 191z m-302 96l252 0c3-14 15-30 18-80-32-32-80-80-144-16-64 64-144 0-144 0 0 64 15 81 18 96z m126-258c-73 0-131 38-142 132 13 9 84 56 142-2 63-63 111-17 143 15-6-103-66-145-143-145z"/>
<glyph unicode="&#107;" d="M335 64l-223 0c-9 0-16-7-16-16 0-9 7-16 16-16l223 0c9 0 16 7 16 16 0 9-7 16-16 16z m144 320l-72 0c6 38 8 64 8 64l-383 0c0 0 32-352 128-352l127 0c37 0 64 52 84 116 121 24 108 172 108 172z m-208-256l-95 0c-41 0-70 76-88 150 23 14 84 45 136-6 58-59 103-23 135 8-18-75-46-152-88-152z m96 189l0 3c-32-32-80-80-143-16-58 58-129 11-142 2-12 59-18 110-18 110l319 0c0 0-5-45-16-99z m13-76c10 38 17 77 22 111l45 0c0 0 0-100-67-111z"/>
<glyph unicode="&#108;" d="M400 64l-384 0c-9 0-16-7-16-16 0-9 7-16 16-16l384 0c9 0 16 7 16 16 0 9-7 16-16 16z m16 350l0 34-416 0 0-192c0-88 72-160 160-160l96 0c66 0 122 40 147 96 60 2 109 51 109 112 0 56-42 103-96 110z m-32-158c0-71-57-128-128-128l-96 0c-71 0-128 57-128 128l0 160 352 0z m29-31c2 10 3 20 3 31l0 126c37-7 64-39 64-78 0-40-29-72-67-79z"/>
<glyph unicode="&#109;" d="M479 352l-72 0c6 38 8 64 8 64l-383 0c0 0 32-352 128-352l127 0c37 0 64 52 84 116 121 24 108 172 108 172z m-208-256l-95 0c-80 0-112 288-112 288l319 0c0 0-32-288-112-288z m109 113c10 37 17 77 23 111l44 0c0 0 0-100-67-111z"/>
<glyph unicode="&#110;" d="M479 384l-72 0c6 38 8 64 8 64l-383 0c0 0 32-352 128-352l127 0c37 0 64 52 84 116 121 24 108 172 108 172z m-208-256l-95 0c-80 0-112 288-112 288l319 0c0 0-32-288-112-288z m109 113c10 38 17 77 22 111l45 0c0 0 0-100-67-111z m-45-177l-223 0c-9 0-16-7-16-16 0-9 7-16 16-16l223 0c9 0 16 7 16 16 0 9-7 16-16 16z"/>
<glyph unicode="&#111;" d="M144 480l224 0c9 0 16 7 16 16 0 9-7 16-16 16l-224 0c-9 0-16-7-16-16 0-9 7-16 16-16z m272-32l-320 0c-18 0-32-19-32-43l0-42c0-24 14-43 32-43l0-287c0-18 14-33 32-33l256 0c18 0 32 15 32 33l0 287c18 0 32 19 32 43l0 42c0 24-14 43-32 43z m-32-401c0-8-7-15-16-15l-224 0c-9 0-16 7-16 15l0 113 32 0c0-53 43-96 96-96 53 0 96 43 96 96l32 0z m-192 113c0 35 29 64 64 64 35 0 64-29 64-64 0-35-29-64-64-64-35 0-64 29-64 64z m192 32l-38 0c-13 37-48 64-90 64-42 0-77-27-90-64l-38 0 0 128 256 0z m16 160l-288 0c-9 0-16 14-16 32 0 18 7 32 16 32l288 0c9 0 16-14 16-32 0-18-7-32-16-32z"/>
<glyph unicode="&#112;" d="M457 446l-25 66-352 0-25-66c-13-4-23-18-23-35l0-54c0-21 14-37 32-37l19 0 29-320 288 0 29 320 19 0c18 0 32 16 32 37l0 54c0 17-10 31-23 35z m-361 34l320 0 11-32-342 0z m272-448l-224 0-7 64 238 0z m11 96l-246 0-10 96 266 0z m14 128l-274 0-7 64 288 0z m55 96l-384 0 0 64 384 0z"/>
<glyph unicode="&#113;" d="M416 384l-4 0c-15 73-79 128-156 128-77 0-141-55-156-128l-4 0c-18 0-32-16-32-37l0-54c0-21 14-37 32-37l4 0 28-224c0-18 14-32 32-32l192 0c18 0 32 14 32 32l28 224 4 0c18 0 32 16 32 37l0 54c0 21-14 37-32 37z m-160 96c60 0 109-41 123-96l-246 0c14 55 63 96 123 96z m96-432c0-9-7-16-16-16l-160 0c-9 0-16 7-16 16l-30 208 252 0z m64 261c0-11-7-21-16-21l-288 0c-9 0-16 10-16 21l0 22c0 11 7 21 16 21l288 0c9 0 16-10 16-21z m-96-117l-128 0 0-96 128 0z m-32-64l-64 0 0 32 64 0z"/>
<glyph unicode="&#114;" d="M224 96l-32 0 0-32 32 0z m192 288l-4 0c-15 73-79 128-156 128-77 0-141-55-156-128l-4 0c-18 0-32-16-32-37l0-54c0-21 14-37 32-37l4 0 28-224c0-18 14-32 32-32l192 0c18 0 32 14 32 32l28 224 4 0c18 0 32 16 32 37l0 54c0 21-14 37-32 37z m-160 96c60 0 109-41 123-96l-246 0c14 55 63 96 123 96z m96-432c0-9-7-16-16-16l-160 0c-9 0-16 7-16 16l-30 208 252 0z m64 261c0-11-7-21-16-21l-288 0c-9 0-16 10-16 21l0 22c0 11 7 21 16 21l288 0c9 0 16-10 16-21z m-96-85l-32 0 0-32 32 0z m-32-160l32 0 0 32-32 0z m-64 128l-32 0 0-32 32 0z m64-32l-32 0 0-32 32 0z"/>
<glyph unicode="&#115;" d="M480 448l0 32-416 0 0-34 192-254 0-128-48 0c-9 0-16-7-16-16 0-9 7-16 16-16l128 0c9 0 16 7 16 16 0 9-7 16-16 16l-48 0 0 128z m-208-224l0 0-169 224 337 0z"/>
<glyph unicode="&#116;" d="M416 512c-42 0-77-27-90-64l-192 0-43 64-27-16 32-48-64 0 0-34 192-254 0-128-48 0c-9 0-16-7-16-16 0-9 7-16 16-16l128 0c9 0 16 7 16 16 0 9-7 16-16 16l-48 0 0 128 125 167c11-5 23-7 35-7 53 0 96 43 96 96 0 53-43 96-96 96z m-176-320l0 0-169 224 47 0 104-156 28 16-94 140 252 0z m176 160c-5 0-10 1-15 2l47 62 0 32-87 0c11 19 31 32 55 32 35 0 64-29 64-64 0-35-29-64-64-64z"/>
<glyph unicode="&#117;" d="M416 368c0 39-43 72-128 79l0 33 96 0 0 32-128 0 0-64c-106 0-160-36-160-80 0-1 0-1 0-2l0 0 0-270c0-53 54-96 160-96 106 0 160 43 160 96l0 271 0 0c0 0 0 1 0 1z m-32-272c0-35-40-64-128-64-88 0-128 29-128 64l0 221c26-18 69-29 128-29 59 0 102 11 128 29z m-128 224c-88 0-128 21-128 48 0 26 40 48 128 48l0-64 32 0 0 63c66-5 96-24 96-47 0-27-40-48-128-48z"/>
<glyph unicode="&#118;" d="M464 352l-48 0 0 64c0 35-29 64-64 64l-256 0c-35 0-64-29-64-64l0-320c0-35 29-64 64-64l256 0c35 0 64 29 64 64l0 32 48 0c26 0 48 21 48 48l0 128c0 26-22 48-48 48z m-80-256c0-18-14-32-32-32l-256 0c-18 0-32 14-32 32l0 320c0 18 14 32 32 32l256 0c18 0 32-14 32-32z m96 80c0-9-7-16-16-16l-48 0 0 160 48 0c9 0 16-7 16-16z"/>
<glyph unicode="&#119;" d="M96 128l32 0 0 256-32 0z m96 0l32 0 0 256-32 0z m256 256c0 0 0 0 0 0l-32 0 0 96c0 18-14 32-32 32l-352 0c-18 0-32-14-32-32l0-448c0-18 14-32 32-32l352 0c18 0 32 14 32 32l0 128 32 0c35 0 64 27 64 60l0 104c0 33-29 60-64 60z m-64-60l0-276c0-9-7-16-16-16l-320 0c-9 0-16 7-16 16l0 416c0 9 7 16 16 16l320 0c9 0 16-7 16-16z m96-103c0-16-14-29-32-29l-32 0 0 160 32 0c18 0 32-13 32-29z m-192-93l32 0 0 256-32 0z"/>
<glyph unicode="&#120;" d="M352 256c0 48-32 64-32 64l0 192-128 0 0-192c0 0-32-16-32-64 0-16 0-256 0-256l192 0c0 0 0 240 0 256z m-128 224l64 0 0-32-64 0z m64-448l-96 0c0 0 0 208 0 224 0 32 32 32 32 32l0 128 64 0 0-128c0 0 32 0 32-32 0-16 0-224 0-224z"/>
<glyph unicode="&#121;" d="M336 352c9 0 16 7 16 16l0 64c0 9-7 16-16 16-9 0-16-7-16-16l0-64c0-9 7-16 16-16z m-64 0c9 0 16 7 16 16l0 96c0 9-7 16-16 16-9 0-16-7-16-16l0-96c0-9 7-16 16-16z m160-320l-320 0c-9 0-16-7-16-16 0-9 7-16 16-16l320 0c9 0 16 7 16 16 0 9-7 16-16 16z m-192 32l64 0c71 0 112 57 112 128l0 128-288 0 0-128c0-71 41-128 112-128z m-80 224l224 0 0-96c0-53-27-96-80-96l-64 0c-53 0-80 43-80 96z m48 64c9 0 16 7 16 16l0 64c0 9-7 16-16 16-9 0-16-7-16-16l0-64c0-9 7-16 16-16z"/>
<glyph unicode="&#122;" d="M272 352c9 0 16 7 16 16l0 96c0 9-7 16-16 16-9 0-16-7-16-16l0-96c0-9 7-16 16-16z m64 0c9 0 16 7 16 16l0 64c0 9-7 16-16 16-9 0-16-7-16-16l0-64c0-9 7-16 16-16z m-128 0c9 0 16 7 16 16l0 64c0 9-7 16-16 16-9 0-16-7-16-16l0-64c0-9 7-16 16-16z m-80-294l0-33c42-16 91-25 144-25 53 0 102 9 144 25l0 33c-40-16-90-26-144-26-54 0-104 10-144 26z m0 262l0-128c0-71 41-128 112-128l64 0c71 0 112 57 112 128l0 128z m256-128c0-53-27-96-80-96l-64 0c-53 0-80 43-80 96l0 96 224 0z"/>
<glyph unicode="&#65;" d="M208 352c9 0 16 7 16 16l0 64c0 9-7 16-16 16-9 0-16-7-16-16l0-64c0-9 7-16 16-16z m128 0c9 0 16 7 16 16l0 64c0 9-7 16-16 16-9 0-16-7-16-16l0-64c0-9 7-16 16-16z m-64 0c9 0 16 7 16 16l0 96c0 9-7 16-16 16-9 0-16-7-16-16l0-96c0-9 7-16 16-16z m-144-32l0-128c0-71 41-128 112-128l64 0c71 0 112 57 112 128l0 128z m256-128c0-53-27-96-80-96l-64 0c-53 0-80 43-80 96l0 32 224 0z m0 64l-224 0 0 32 224 0z m-256-198l0-33c42-16 91-25 144-25 53 0 102 9 144 25l0 33c-40-16-90-26-144-26-54 0-104 10-144 26z"/>
<glyph unicode="&#66;" d="M272 352c9 0 16 7 16 16l0 96c0 9-7 16-16 16-9 0-16-7-16-16l0-96c0-9 7-16 16-16z m64 0c9 0 16 7 16 16l0 64c0 9-7 16-16 16-9 0-16-7-16-16l0-64c0-9 7-16 16-16z m-128 0c9 0 16 7 16 16l0 64c0 9-7 16-16 16-9 0-16-7-16-16l0-64c0-9 7-16 16-16z m224-320l-320 0c-9 0-16-7-16-16 0-9 7-16 16-16l320 0c9 0 16 7 16 16 0 9-7 16-16 16z m-192 32l64 0c71 0 112 57 112 128l0 128-288 0 0-128c0-71 41-128 112-128z m-80 224l224 0 0-32-224 0z m0-64l224 0 0-32c0-53-27-96-80-96l-64 0c-53 0-80 43-80 96z"/>
<glyph unicode="&#67;" d="M384 288c0 16-64 32-64 32l0 96c18 0 32 21 32 48 0 26-14 48-32 48l-128 0c-18 0-32-22-32-48 0-27 14-48 32-48l0-96c0 0-64-16-64-32 0-16 0-256 0-256l2 0c-1-3-2-5-2-8 0-13 11-24 24-24l208 0c13 0 24 11 24 24 0 3-1 5-2 8l2 0c0 0 0 240 0 256z m-176 192l96 0c9 0 16-7 16-16 0-9-7-16-16-16l-16 0 0 0-80 0c-9 0-16 7-16 16 0 9 7 16 16 16z m144-368c0-19 0-32 0-32l0-32c0-9-7-16-16-16l-160 0c-9 0-16 7-16 16l0 32c0 0 0 13 0 32l0 144c0 32 64 32 64 32l0 128 64 0 0-128c0 0 64 0 64-32z"/>
<glyph unicode="&#68;" d="M320 320l0 96c18 0 32 21 32 48 0 26-14 48-32 48l-128 0c-18 0-32-22-32-48 0-27 14-48 32-48l0-96c0 0-64-16-64-32l0-192c0-37 0-64 0-64l2 0c-1-3-2-5-2-8 0-13 11-24 24-24l208 0c13 0 24 11 24 24 0 3-1 5-2 8l2 0c0 0 0 27 0 64l0 192c0 16-64 32-64 32z m-112 160l96 0c9 0 16-7 16-16 0-9-7-16-16-16l-96 0c-9 0-16 7-16 16 0 9 7 16 16 16z m144-400l0-32c0-9-7-16-16-16l-160 0c-9 0-16 7-16 16l0 32c0 0 0 6 0 16l192 0c0-10 0-16 0-16z m0 48l-192 0 0 64 192 0z m0 96l-192 0 0 32c0 32 64 32 64 32l0 128 64 0 0-128c0 0 64 0 64-32z"/>
<glyph unicode="&#69;" d="M416 480l-320 0c-18 0-32-14-32-32l32-416c0-18 14-32 32-32l256 0c18 0 32 14 32 32l32 416c0 18-14 32-32 32z m-32-432c0-9-7-16-16-16l-224 0c-9 0-16 7-16 16l-32 384c0 9 7 16 16 16l288 0c9 0 16-7 16-16z"/>
<glyph unicode="&#70;" d="M480 272c0 45-27 84-65 101 0 4 1 7 1 11 0 71-57 128-128 128-71 0-128-57-128-128 0-1 0-1 0-2-54-7-96-54-96-110 0-6 1-11 2-16l-2 0 224-256 192 256-2 0c1 5 2 10 2 16z m-192 208c53 0 96-43 96-96 0-1 0-1 0-2-5 1-11 2-16 2-41 0-77-22-96-55-17 28-46 48-80 53 0 1 0 1 0 2 0 53 43 96 96 96z m-192-208c0 44 36 80 80 80 44 0 80-36 80-80 0-6-1-11-2-16l-156 0c-1 5-2 10-2 16z m192-224l-160 176 288 0z m158 208l-156 0c-1 5-2 10-2 16 0 44 36 80 80 80 44 0 80-36 80-80 0-6-1-11-2-16z"/>
<glyph unicode="&#71;" d="M480 368c0 44-36 80-80 80-9 0-17-2-25-4-17 40-57 68-103 68-46 0-86-28-103-68-8 2-16 4-25 4-44 0-80-36-80-80 0-6 1-11 2-16l0-32c-1-5-2-11-2-16 0-109 85-198 192-206l0-66-64 0 0-32 160 0 0 32-64 0 0 66c107 8 192 97 192 206 0 5-1 11-2 16l0 32c1 5 2 10 2 16z m-208 112c35 0 64-22 75-53-17-14-27-35-27-59 0-6 1-11 2-16l-100 0c1 5 2 10 2 16 0 24-10 45-27 59 11 31 40 53 75 53z m-128-64c27 0 48-22 48-48 0-6-1-11-3-16l-90 0c-2 5-3 10-3 16 0 26 21 48 48 48z m128-288c-97 0-176 79-176 176 0 5 1 11 2 16l348 0c1-5 2-11 2-16 0-97-79-176-176-176z m173 224l-90 0c-2 5-3 10-3 16 0 26 22 48 48 48 26 0 48-22 48-48 0-6-1-11-3-16z"/>
<glyph unicode="&#72;" d="M288 512l-32 0c-71 0-128-57-128-128l0-192c0-35 29-64 64-64l32 0 0-96c0-18 14-32 32-32l32 0c18 0 32 14 32 32l0 96 32 0c35 0 64 29 64 64l0 192c0 71-57 128-128 128z m0-464c0-9-7-16-16-16-9 0-16 7-16 16l0 80 32 0z m96 272l0-128c0-18-14-32-32-32l-160 0c-18 0-32 14-32 32l0 192c0 53 43 96 96 96l32 0c53 0 96-43 96-96z"/>
<glyph unicode="&#73;" d="M352 512l-160 0c-35 0-64-29-64-64l0-256c0-35 29-64 64-64l32 0 0-96c0-18 14-32 32-32l32 0c18 0 32 14 32 32l0 96 32 0c35 0 64 29 64 64l0 256c0 35-29 64-64 64z m-64-464c0-9-7-16-16-16-9 0-16 7-16 16l0 80 32 0z m96 144c0-18-14-32-32-32l-160 0c-18 0-32 14-32 32l0 256c0 18 14 32 32 32l160 0c18 0 32-14 32-32z"/>
<glyph unicode="&#74;" d="M398 255c-17 29-43 73-64 111-16 30-31 63-39 82l41 0c9 0 16 7 16 16 0 9-7 16-16 16l-160 0c-9 0-16-7-16-16 0-9 7-16 16-16l49 0c-18-19-47-52-63-82-21-38-35-82-42-111-67-4-120-59-120-127 0-71 57-128 128-128 71 0 128 57 128 128 0 62-44 114-103 126 7 24 21 61 39 99 14 29 43 61 66 83 13-22 32-54 46-83 22-45 44-81 55-99-58-12-103-64-103-126 0-71 57-128 128-128 71 0 128 57 128 128 0 66-50 120-114 127z m-174-127c0-53-43-96-96-96-53 0-96 43-96 96 0 53 43 96 96 96 53 0 96-43 96-96z m160-96c-53 0-96 43-96 96 0 53 43 96 96 96 53 0 96-43 96-96 0-53-43-96-96-96z"/>
<glyph unicode="&#75;" d="M388 288c-16 19-37 47-54 78-18 33-34 87-42 114l44 0c9 0 16 7 16 16 0 9-7 16-16 16l-160 0c-9 0-16-7-16-16 0-9 7-16 16-16l54 0c-17-27-50-81-68-114-21-38-35-82-42-111-67-4-120-59-120-127 0-71 57-128 128-128 71 0 128 57 128 128 0 62-44 114-103 126 7 24 21 61 39 99 14 29 43 71 66 102 13-31 32-73 46-102 18-37 36-58 49-69-56-14-97-64-97-124 0-71 57-128 128-128 71 0 128 57 128 128 0 69-55 125-124 128z m-164-160c0-53-43-96-96-96-53 0-96 43-96 96 0 53 43 96 96 96 53 0 96-43 96-96z m160-64c-53 0-96 43-96 96 0 53 43 96 96 96 53 0 96-43 96-96 0-53-43-96-96-96z"/>
<glyph unicode="&#76;" d="M248 386c8-4 17-2 22 6 0 0 0 24 15 47 17 24 49 49 49 49 4 7 2 17-6 22-8 4-17 2-22-6 0 0-32-24-48-48-16-24-16-48-16-48-4-7-2-17 6-22z m107-2c-43 0-73-32-99-32-26 0-56 32-99 32-69 0-125-57-125-128 0-71 59-256 128-256 64 0 64 31 96 31 32 0 32-31 96-31 69 0 128 185 128 256 0 71-56 128-125 128z m-3-352c-30 0-29 8-45 16-14 7-30 15-51 15-21 0-37-8-51-15-16-8-15-16-45-16-31 0-96 138-96 224 0 53 42 96 93 96 16 0 31-8 47-16 16-8 33-16 52-16 19 0 36 8 52 16 16 8 31 16 47 16 51 0 93-43 93-96 0-86-65-224-96-224z"/>
<glyph unicode="&#77;" d="M480 119l-233 233 0 0 0 0-128 128-11-12-1 1c-46-46-75-110-75-181 0-141 115-256 256-256 65 0 124 24 169 64l0 0 6 5c2 2 4 4 6 6l0 0z m-192-55c-124 0-224 100-224 224 0 56 21 107 55 146l90-89-113-23 9-34 134 26 26-25-105-105 24-24 105 105 15-16 0-153 32 0 0 121 98-98c-39-34-90-55-146-55z"/>
<glyph unicode="&#78;" d="M512 352c0 53-43 96-96 96-33 0-63-17-80-43-14 22-37 37-64 41l0 34 32 0c9 0 16 7 16 16 0 9-7 16-16 16l-96 0c-9 0-16-7-16-16 0-9 7-16 16-16l32 0 0-34c-27-4-50-19-64-41-17 26-47 43-80 43-53 0-96-43-96-96 0-53 43-96 96-96 2 0 4 0 6 1-4-11-6-22-6-33 0-44 30-81 71-92-4-11-7-23-7-36 0-53 43-96 96-96 53 0 96 43 96 96 0 11-2 22-6 33 2-1 4-1 6-1 53 0 96 43 96 96 0 13-3 25-7 36 41 11 71 48 71 92z m-256 64c35 0 64-29 64-64 0-35-29-64-64-64-35 0-64 29-64 64 0 35 29 64 64 64z m-160-128c-35 0-64 29-64 64 0 35 29 64 64 64 35 0 64-29 64-64 0-35-29-64-64-64z m32-64c0 33 25 60 57 63 16-17 37-28 62-30 5-10 9-21 9-33 0-35-29-64-64-64-35 0-64 29-64 64z m128-192c-35 0-64 29-64 64 0 12 4 23 9 33 25 2 46 13 62 30 32-3 57-30 57-63 0-35-29-64-64-64z m96 128c-35 0-64 29-64 64 0 35 29 64 64 64 35 0 64-29 64-64 0-35-29-64-64-64z m70 129c-15 17-36 28-61 30-5 10-9 21-9 33 0 35 29 64 64 64 35 0 64-29 64-64 0-33-25-60-58-63z"/>
<glyph unicode="&#79;" d="M115 480c-9 1-17-5-19-14l-32-150-32 150c-2 9-10 15-19 14-9-2-14-10-13-19l48-221-48-222c-1-8 4-17 13-18 9-2 17 4 19 13l32 151 32-150c2-9 10-15 19-14 9 2 14 10 13 19l-48 221 48 221c1 9-4 17-13 19z m397-99l-32 102c0 16-14 29-32 29l-224 0c-18 0-32-13-32-29l-32-102c0-5 2-10 5-14-3-5-5-10-5-16l32-318c0-18 14-33 32-33l224 0c18 0 32 15 32 33l32 318c0 6-2 11-5 16 3 4 5 9 5 14z m-64-332c0-9-7-17-16-17l-192 0c-9 0-16 8-16 17l-5 47 234 0z m9 79l-242 0-7 64 256 0z m11 96l-264 0-12 111c0 9 7 17 16 17l256 0c9 0 16-8 16-17z m-4 160l-256 0c-9 0-16 6-16 14l32 68c0 8 7 14 16 14l192 0c9 0 16-6 16-14l32-68c0-8-7-14-16-14z"/>
<glyph unicode="&#80;" d="M115 480c-9 1-17-5-19-14l-32-150-32 150c-2 9-10 15-19 14-9-2-14-10-13-19l48-221-48-222c-1-8 4-17 13-18 9-2 17 4 19 13l32 151 32-150c2-9 10-15 19-14 9 2 14 10 13 19l-48 221 48 221c1 9-4 17-13 19z m221-224c-44 0-80-36-80-80 0-44 36-80 80-80 44 0 80 36 80 80 0 44-36 80-80 80z m0-128c-26 0-48 21-48 48 0 26 22 48 48 48 26 0 48-22 48-48 0-27-22-48-48-48z m176 253l-32 102c0 16-14 29-32 29l-224 0c-18 0-32-13-32-29l-32-102c0-5 2-10 5-14-3-5-5-10-5-16l32-318c0-18 14-33 32-33l224 0c18 0 32 15 32 33l32 318c0 6-2 11-5 16 3 4 5 9 5 14z m-64-332c0-9-7-17-16-17l-192 0c-9 0-16 8-16 17l-32 286c0 9 7 17 16 17l256 0c9 0 16-8 16-17z m16 335l-256 0c-9 0-16 6-16 14l32 68c0 8 7 14 16 14l192 0c9 0 16-6 16-14l32-68c0-8-7-14-16-14z"/>
<glyph unicode="&#81;" d="M115 480c-9 1-17-5-19-14l-32-150-32 150c-2 9-10 15-19 14-9-2-14-10-13-19l48-221-48-222c-1-8 4-17 13-18 9-2 17 4 19 13l32 151 32-150c2-9 10-15 19-14 9 2 14 10 13 19l-48 221 48 221c1 9-4 17-13 19z m397-99l-32 102c0 16-14 29-32 29l-224 0c-18 0-32-13-32-29l-32-102c0-5 2-10 5-14-3-5-5-10-5-16l32-318c0-18 14-33 32-33l224 0c18 0 32 15 32 33l32 318c0 6-2 11-5 16 3 4 5 9 5 14z m-64-332c0-9-7-17-16-17l-192 0c-9 0-16 8-16 17l-2 15 228 0z m5 47l-234 0-27 239c0 9 7 17 16 17l256 0c9 0 16-8 16-17z m11 288l-256 0c-9 0-16 7-16 16l32 64c0 9 7 16 16 16l192 0c9 0 16-7 16-16l32-64c0-9-7-16-16-16z"/>
<glyph unicode="&#82;" d="M512 288c0 53-115 96-256 96-141 0-256-43-256-96 0-4 1-7 2-10-1-8-2-15-2-22 0-141 115-256 256-256 141 0 256 115 256 256 0 7-1 14-2 22 1 3 2 6 2 10z m-256-256c-119 0-216 92-223 209 44-29 127-49 223-49 96 0 179 20 223 49-7-117-104-209-223-209z m0 192c-124 0-224 29-224 64 0 35 100 64 224 64 124 0 224-29 224-64 0-35-100-64-224-64z"/>
<glyph unicode="&#83;" d="M342 320l124 110c7 6 7 16 1 23-5 7-16 7-22 1l-151-134z m-342-32c0-95 52-177 128-221l5-3c10-5 19-10 29-14-1-3-2-6-2-10 0-22 18-40 40-40l112 0c22 0 40 18 40 40 0 4-1 7-2 10 10 4 19 9 29 14l5 3c77 44 128 126 128 221z m320-256l-128 0 0 32 128 0z m50 64l-228 0c-57 34-98 92-107 160l442 0c-9-68-50-126-107-160z m12 392c4 8 2 17-6 22-7 4-17 2-22-6l-108-184 37 0z"/>
<glyph unicode="&#84;" d="M342 288l124 110c7 6 7 16 1 23-5 7-16 7-22 1l-151-134z m154-32l-496 0c0-141 115-256 256-256 141 0 256 115 256 256z m-240-224c-76 0-143 38-183 96l366 0c-40-58-107-96-183-96z m202 128l-404 0c-9 20-16 41-19 64l443 0c-4-23-11-44-20-64z m-76 296c4 8 2 17-6 22-7 4-17 1-22-6l-108-184 37 0z"/>
<glyph unicode="&#85;" d="M447 160c0 141-50 256-191 256-141 0-191-115-191-256 0 0-14-84 153-95 2 0 4-1 6-1l31 0c0 0 1 0 1 0 0 0 0 0 0 0 0 0 1 0 1 0l31 0c2 0 4 1 6 1 167 11 153 95 153 95z m-41-27c-10-10-33-26-86-33l0 60c0 18-14 32-32 32l-64 0c-18 0-32-14-32-32l0-60c-53 7-76 23-86 33-9 10-10 19-10 22l0 1 0 4c0 149 54 224 160 224 106 0 160-75 160-224l-1-1c0 0 0-15-9-26z"/>
<glyph unicode="&#86;" d="M512 154c0 180-67 326-256 326-189 0-256-146-256-326 0 0-17-97 177-118 4-2 9-4 15-4l64 0c0 0 0 0 0 0l64 0c6 0 11 2 15 4 194 21 177 118 177 118z m-192-74c0-9-7-16-16-16l-96 0c-9 0-16 7-16 16l0 64c0 9 7 16 16 16l96 0c9 0 16-7 16-16z m148 39c-12-15-43-38-116-49l0 90c0 18-14 32-32 32l-128 0c-18 0-32-14-32-32l0-89c-71 10-102 31-115 46-14 15-14 29-14 32l1 1 0 4c0 134 39 294 224 294 185 0 224-160 224-294l0-3 1-2c0 0 1-15-13-30z"/>
<glyph unicode="&#87;" d="M256 512c-141 0-256-115-256-256l0-224c0-18 14-32 32-32l448 0c18 0 32 14 32 32l0 224c0 141-115 256-256 256z m-223-235c11 114 106 203 223 203 116 0 212-89 223-203 1-1 1-21 1-21l-448 0c0 0 0 20 1 21z m447-229c0-9-7-16-16-16l-416 0c-9 0-16 7-16 16l0 80 448 0z m-448 112l0 64 448 0 0-64z"/>
<glyph unicode="&#88;" d="M67 224c-2 10-3 21-3 32 0 106 86 192 192 192 106 0 192-86 192-192 0-11-1-22-3-32l32 0c1 11 3 21 3 32 0 124-100 224-224 224-124 0-224-100-224-224 0-11 2-21 3-32z m413 0l-448 0c-18 0-32-14-32-32l0-64c0-18 14-32 32-32l11 0 21-64c0-18 14-32 32-32l320 0c18 0 32 14 32 32l21 64 11 0c18 0 32 14 32 32l0 64c0 18-14 32-32 32z m-64-176c0-9-7-16-16-16l-288 0c-9 0-16 7-16 16l-24 48 368 0z m64 96c0-9-7-16-16-16l-416 0c-9 0-16 7-16 16l0 32c0 9 7 16 16 16l416 0c9 0 16-7 16-16z"/>
<glyph unicode="&#89;" d="M256 480c0 0-160-182-160-288 0-106 72-192 160-192 88 0 160 86 160 192 0 106-160 288-160 288z m0-448c-71 0-128 72-128 160 0 88 128 240 128 240 0 0 128-152 128-240 0-88-57-160-128-160z m-80 176c0 2 0 4 0 5-10-15-16-33-16-53 0-53 43-96 96-96 20 0 38 6 53 16-1 0-3 0-5 0-71 0-128 57-128 128z"/>
<glyph unicode="&#90;" d="M224 496l0-96c0-30-4-55-32-62l0 174-32 0 0-176c-28 7-32 34-32 64l0 96c0 6 0 16 0 16l-32 0 0-112c0-48 19-87 64-94l0-306 32 0 0 306c45 7 64 46 64 94l0 112-32 0z m202-108c-21 58-66 112-74 122l0 2-32 0 0-9 0 0 0 0 0-503 32 0 0 224 96 0 0 8 0 1c0 0 4 81-22 155z m-74-132l0 203c17-25 36-58 48-92 14-42 18-83 18-111z"/>
<glyph unicode="&#48;" d="M368 512c-62 0-112-65-112-144 0-73 42-132 96-142l0-226 32 0 0 226c54 10 96 69 96 142 0 79-50 144-112 144z m0-256c-44 0-80 50-80 112 0 62 36 112 80 112 44 0 80-50 80-112 0-62-36-112-80-112z m-208 240l0-96c0-30-4-55-32-62l0 174-32 0 0-174c-28 7-32 32-32 62l0 112-32 0 0-112c0-48 19-87 64-94l0-306 32 0 0 306c45 7 64 46 64 94l0 112-32 0z"/>
<glyph unicode="&#49;" d="M451 310c-26 43-21 73-21 74 1 6-1 12-6 15-5 4-11 5-16 3-2-1-34-16-47-60-3-11-5-23-6-34-5 8-9 16-12 23-35 74-19 161-18 162 1 6-1 11-5 15-4 4-10 5-16 4-4-2-102-31-125-156-8-45-3-89 4-119-10 7-19 17-28 31-13 20-23 57-23 58-2 6-7 11-13 11-7 1-13-2-16-8-2-2-39-68-39-130 0-115 86-199 207-199 121 0 209 84 209 199 0 48-6 73-29 111z m-180-278c-102 0-175 70-175 167 0 28 10 57 18 79 4-9 9-19 14-28 29-46 74-57 76-58 6-1 12 1 16 5 4 5 5 11 3 17 0 0-25 68-12 136 13 70 53 105 80 120-3-35-4-96 23-153 12-27 40-67 42-69 4-6 11-8 18-6 7 3 11 9 11 16 0 1-3 41 7 75 2 8 5 14 8 19 3-16 10-36 23-58 20-33 25-53 25-95 0-97-74-167-177-167z"/>
<glyph unicode="&#50;" d="M160 176c0-62 50-112 112-112 62 0 112 50 112 112 0 62-112 176-112 176 0 0-112-114-112-176z m112-80c-44 0-80 36-80 80 0 44 80 128 80 128 0 0 80-84 80-128 0-44-36-80-80-80z m0 416c0 0-208-189-208-304 0-115 93-208 208-208 115 0 208 93 208 208 0 115-208 304-208 304z m0-480c-97 0-176 79-176 176 0 97 176 256 176 256 0 0 176-159 176-256 0-97-79-176-176-176z"/>
<glyph unicode="&#51;" d="M384 512l-256 0c-70 0-128-72-128-160 0 0 0 0 0 0l0 0 0-64 0 0 0-288 288 0 0 160 96 0c0 0 0 0 0 0 70 0 128 79 128 176 0 97-58 176-128 176z m-128-480l-224 0 0 319c0 0 0 1 0 1 0 71 43 128 96 128 0 0 0 0 1 0l75 0c0 0 0 0 0 0l106 0c-32-32-54-84-54-144 0-5 0-304 0-304z m128 160c0 0 0 0 0 0l-32 0 0 0-64 0 0 0 0 0 1 160c5 72 45 128 95 128 53 0 96-65 96-144 0-80-43-144-96-144z m16 224c-26 0-47-34-48-77l0-6c1-43 22-77 48-77 26 0 48 36 48 80 0 44-22 80-48 80z m0-128c-9 0-16 21-16 48 0 26 7 48 16 48 9 0 16-22 16-48 0-27-7-48-16-48z"/>
<glyph unicode="&#52;" d="M384 480l-32 0 0-32 32 0c18 0 32-14 32-32l0-320c0-18-14-32-32-32l-256 0c-18 0-32 14-32 32l0 320c0 18 14 32 32 32l32 0 0 32-32 0c-35 0-64-29-64-64l0-320c0-35 29-64 64-64l32 0 0-32 32 0 0 32 128 0 0-32 32 0 0 32 32 0c35 0 64 29 64 64l0 320c0 35-29 64-64 64z m-224-320l192 0 0 32-192 0z m192 128l-192 0 0-32 192 0z m0 96l-192 0 0-32 192 0z m-32 128l-128 0 0-32 128 0z"/>
<glyph unicode="&#53;" d="M96 48l0 304 160 128 160-128 0-128 32 0 0 144-192 144-192-144 0-336c0-18 16-32 35-32l157 0 0 32-142 0c-10 0-18 7-18 16z m359 112l-101-111-49 47-25-24 75-72 0 0 0 0 2 2 22 23 101 111z m-135 192c0 35-29 64-64 64-35 0-64-29-64-64 0-35 29-64 64-64 35 0 64 29 64 64z m-64-32c-18 0-32 14-32 32 0 18 14 32 32 32 18 0 32-14 32-32 0-18-14-32-32-32z"/>
<glyph unicode="&#54;" d="M192 160l-128 0 0-32 128 0z m-192 96l0-160c0-35 29-64 64-64l384 0c35 0 64 29 64 64l0 192-512 0z m32 0l448 0 0-160c0-18-14-32-32-32l-384 0c-18 0-32 14-32 32z m416 224l-384 0c-35 0-64-29-64-64l0-64 512 0 0 64c0 35-29 64-64 64z m32-96l-448 0 0 32c0 18 14 32 32 32l384 0c18 0 32-14 32-32z"/>
<glyph unicode="&#55;" d="M229 379c-6-6-6-17 0-23l63-63c0 0 0 0 1 0 2-3 6-5 11-5 0 0 0 0 0 0 1 0 1 0 2 0 3 1 6 2 8 4 1 0 2 0 2 1l63 63c7 6 7 17 0 23-6 7-17 7-23 0l-36-36 0 153c0 9-7 16-16 16-9 0-16-7-16-16l0-152-35 35c-7 7-17 7-24 0z m59-315c0-35 29-64 64-64 35 0 64 29 64 64 0 35-29 64-64 64-35 0-64-29-64-64z m64 32c18 0 32-14 32-32 0-18-14-32-32-32-18 0-32 14-32 32 0 18 14 32 32 32z m160 337c0 1-1 2-1 2 0 2 0 3-1 5 0 0-1 0-1 0-1 2-2 3-3 4-1 1-1 1-1 1-2 1-3 2-5 2 0 0 0 0-1 1 0 0-1 0-2 0 0 0-1 0-1 0l-3 0c0 0 0 0-1 0l-140 0 0-32 122 0-39-161-339-31 0 192 160 0 0 32-160 0 0 32 16 0c9 0 16 7 16 16 0 9-7 16-16 16l-96 0c-9 0-16-7-16-16 0-9 7-16 16-16l48 0 0-336c0-9 7-16 16-16l400 0c9 0 16 7 16 16 0 9-7 16-16 16l-384 0 0 33 348 32c0 0 0-1 1-1 9-2 18 3 21 12l45 191c1 1 0 2 1 3 0 1 0 1 0 2 0 0 0 1 0 1z m-416-369c0-35 29-64 64-64 35 0 64 29 64 64 0 35-29 64-64 64-35 0-64-29-64-64z m64 32c18 0 32-14 32-32 0-18-14-32-32-32-18 0-32 14-32 32 0 18 14 32 32 32z"/>
<glyph unicode="&#56;" d="M333 383c-29 57-88 97-157 97-97 0-176-79-176-176 0-31 8-59 22-85-14-22-22-47-22-75 0-80 64-144 144-144l176 0c106 0 192 86 192 192 0 102-79 184-179 191z m-157 65c51 0 95-27 121-66-61-8-114-44-143-95-3 0-7 1-10 1-39 0-74-16-100-41-7 18-12 37-12 57 0 79 64 144 144 144z m176-416l-224 0c-54 8-96 56-96 112 0 62 50 112 112 112 10 0 19-2 28-4 24 59 81 100 148 100 88 0 160-72 160-160 0-77-55-145-128-160z"/>
<glyph unicode="&#57;" d="M288 0l32 0 0 32-32 0z m-96 96l-32 0 0-32 32 0z m0-96l32 0 0 32-32 0z m96 96l-32 0 0-32 32 0z m98 333c-23 49-73 83-130 83-63 0-117-41-136-98-68-12-120-71-120-142 0-80 64-144 144-144l224 0 0 1c80 4 144 70 144 151 0 75-55 137-126 149z m-18-268l0-1-224 0c-62 0-112 50-112 112 0 62 50 112 112 112 1 0 1 0 2 0 7 54 54 96 110 96 51 0 93-34 107-80 65-2 117-55 117-120 0-64-50-115-112-119z m-16-97l32 0 0 32-32 0z"/>
<glyph unicode="&#33;" d="M32 256c0 53 43 96 96 96l128 0 0 32-80 96-16-32 53-64-85 0c-71 0-128-57-128-128 0-71 57-128 128-128l32 0 0 32-32 0c-53 0-96 43-96 96z m352 128l-64 0 0-32 64 0c53 0 96-43 96-96 0-53-43-96-96-96l-160 0 0-32 80-96 16 32-53 64 117 0c71 0 128 57 128 128 0 71-57 128-128 128z"/>
<glyph unicode="&#34;" d="M349 404c5 5 6 9 6 9l1 0c0 0 0-6 0-11l0-89-34 0 0-25 94 0 0 25-33 0 0 135-25 0-38-39 16-18z m128-60c-3-12-8-23-15-32 11-16 18-35 18-56 0-53-43-96-96-96l-160 0 0-32 80-96 16 32-53 64 117 0c71 0 128 57 128 128 0 34-14 65-35 88z m-445-88c0 53 43 96 96 96l128 0 0 32-80 96-16-32 53-64-85 0c-71 0-128-57-128-128 0-71 57-128 128-128l32 0 0 32-32 0c-53 0-96 43-96 96z"/>
<glyph unicode="&#35;" d="M262 320l-38-39 16-18 13 13c5 5 6 9 6 9l1 0c0 0 0-6 0-11l0-89-34 0 0-25 94 0 0 25-33 0 0 135z m-6-256c-80 0-148 54-169 128l41 0-64 96-64-96 54 0c22-92 104-160 202-160 74 0 138 38 175 96l-40 0c-33-39-81-64-135-64z m202 224c-22 92-104 160-202 160-74 0-138-38-175-96l40 0c33 39 81 64 135 64 80 0 147-54 169-128l-41 0 64-96 64 96z"/>
<glyph unicode="&#36;" d="M256 64c-80 0-148 54-169 128l41 0-64 96-64-96 54 0c22-92 104-160 202-160 74 0 138 38 175 96l-40 0c-33-39-81-64-135-64z m202 224c-22 92-104 160-202 160-74 0-138-38-175-96l40 0c33 39 81 64 135 64 80 0 147-54 169-128l-41 0 64-96 64 96z"/>
<glyph unicode="&#37;" d="M384 63l-114 0-34 62-16-28 36-65 32 0 0 0 96 0 0-32 96 48-96 48z m-236 164l16 28-36 65-32 0 0 0-96 0 0-33 114 0z m236 60l0-31 96 48-96 48 0-32-128 0-142-257-114 0 0-31 96 0 0 0 32 0 142 255z"/>
<glyph unicode="&#38;" d="M311 320c0 0 182 0 182 0l3 0c9 0 16 7 16 16 0 5-2 9-5 12 0 1 0 3-1 4l-92 91c-7 7-18 7-26 0-7-7-7-19 0-26l65-65-149 0c-2 0-5-1-7-2-3-1-6-2-8-4l-36-36 25-24z m-174-128l-120 0c-9 0-17-7-17-16 0-9 8-16 17-16l125 0c0 0 1 0 1 0 5-1 11 1 15 4l36 37-24 24z m364-1c-5 2-190 1-190 1l-153 156c-4 3-10 5-15 4 0 0-1 0-1 0l-125 0c-9 0-17-7-17-16 0-9 8-16 17-16l100 0c0 0 18 2 21-1l151-153c2-2 5-4 8-4 2-1 5-2 7-2l148 0-64-64c-7-7-7-18 0-26 8-7 19-7 26 0l92 91c0 1 0 2 1 3 3 3 5 7 5 12 0 7-5 13-11 15z"/>
<glyph unicode="&#39;" d="M252 251c0 1 0 1 0 1-1 0-1 0-1 0l-159 143c-6 7-17 7-23 0-7-6-7-16 0-23l147-132-147-132c-6-6-6-17 0-23 7-6 17-6 24 0l159 143c6 7 6 17 0 23z m192 0c-1 1-1 1-1 1 0 0 0 0 0 0l-191 175c-6 7-17 7-23 0-7-6-7-16 0-23l179-164-179-164c-6-6-6-17 0-23 7-6 17-6 24 0l191 175c6 7 6 17 0 23z"/>
<glyph unicode="&#40;" d="M268 251c0 1 0 1 0 1-1 0-1 0-1 0l-191 175c-6 7-17 7-23 0-6-6-6-16 0-23l179-164-179-164c-6-6-6-17 0-23 7-6 17-6 24 0l191 175c6 7 6 17 0 23z m192 0c-1 1-1 1-1 1 0 0 0 0 0 0l-159 143c-6 7-17 7-23 0-7-6-7-16 0-23l146-132-146-132c-6-6-6-17 0-23 7-6 17-6 24 0l159 143c6 7 6 17 0 23z"/>
<glyph unicode="&#41;" d="M89 240l179 164c6 7 6 17 0 23-7 7-17 7-24 0l-191-175c0 0 0 0 0 0 0 0 0 0 0-1-7-6-7-16 0-23l191-175c6-7 17-7 23 0 7 6 7 17 0 23z m192 0l147 132c6 7 6 17 0 23-7 7-17 7-24 0l-159-143c0 0 0 0 0 0 0 0 0 0 0-1-7-6-7-16 0-23l159-143c6-7 17-7 23 0 6 6 6 17 0 23z"/>
<glyph unicode="&#42;" d="M73 240l147 132c6 7 6 17 0 23-7 7-17 7-24 0l-159-143c0 0 0 0 0 0 0 0 0 0 0-1-6-6-6-16 0-23l159-143c6-7 17-7 23 0 7 6 7 17 0 23z m192 0l178 164c7 7 7 17 0 23-6 7-16 7-23 0l-191-175c0 0 0 0 0 0 0 0 0 0 0-1-7-6-7-16 0-23l191-175c6-7 17-7 23 0 6 6 6 17 0 23z"/>
<glyph unicode="&#43;" d="M32 224l32 0 0 32-32 0z m0-128l32 0 0 32-32 0z m0 256l32 0 0 32-32 0z m96 32l0-32 352 0 0 32z m0-160l352 0 0 32-352 0z m0-128l352 0 0 32-352 0z"/>
<glyph unicode="&#44;" d="M480 96l-224 352-224-352z m-224 288l171-256-342 0z m208-320l-416 0c-9 0-16-7-16-16 0-9 7-16 16-16l416 0c9 0 16 7 16 16 0 9-7 16-16 16z"/>
<glyph unicode="&#45;" d="M512 224l-320 224 0-122-192 122 0-448 192 122 0-122z m-480-166l0 332 192-123 0 119 232-162-232-163 0 119z"/>
<glyph unicode="&#46;" d="M320 326l0 122-320-224 320-224 0 122 192-122 0 448z m160-268l-192 122 0-119-232 163 232 162 0-119 192 123z"/>
<glyph unicode="&#47;" d="M64 448l0-384 384 0 0 384z m352-352l-320 0 0 320 320 0z"/>
<glyph unicode="&#58;" d="M416 448l-320 0c-18 0-32-14-32-32l0-320c0-18 14-32 32-32l320 0c18 0 32 14 32 32l0 320c0 18-14 32-32 32z m0-336c0-9-7-16-16-16l-288 0c-9 0-16 7-16 16l0 288c0 9 7 16 16 16l288 0c9 0 16-7 16-16z"/>
<glyph unicode="&#59;" d="M96 32l128 0 0 448-128 0z m32 416l64 0 0-384-64 0z m160 32l0-448 128 0 0 448z m96-416l-64 0 0 384 64 0z"/>
<glyph unicode="&#60;" d="M176 416c-9 0-16-7-16-16l0-320c0-9 7-16 16-16 9 0 16 7 16 16l0 320c0 9-7 16-16 16z m160 0c-9 0-16-7-16-16l0-320c0-9 7-16 16-16 9 0 16 7 16 16l0 320c0 9-7 16-16 16z"/>
<glyph unicode="&#61;" d="M176 480l-32 0c-27 0-48-22-48-48l0-352c0-27 21-48 48-48l32 0c27 0 48 21 48 48l0 352c0 26-21 48-48 48z m16-400c0-9-7-16-16-16l-32 0c-9 0-16 7-16 16l0 352c0 9 7 16 16 16l32 0c9 0 16-7 16-16z m176 400l-32 0c-26 0-48-22-48-48l0-352c0-27 22-48 48-48l32 0c26 0 48 21 48 48l0 352c0 26-22 48-48 48z m16-400c0-9-7-16-16-16l-32 0c-9 0-16 7-16 16l0 352c0 9 7 16 16 16l32 0c9 0 16-7 16-16z"/>
<glyph unicode="&#62;" d="M96 480l0-448 352 224z m32-53l256-171-256-171z"/>
<glyph unicode="&#63;" d="M288 446l0 34-32 0 0-34c-37-7-64-39-64-78 0-39 27-71 64-78l0-258 32 0 0 258c37 7 64 39 64 78 0 39-27 71-64 78z m-16-126c-26 0-48 21-48 48 0 26 21 48 48 48 27 0 48-22 48-48 0-27-22-48-48-48z m176-98l0 258-32 0 0-258c-37-7-64-39-64-78 0-39 27-71 64-78l0-34 32 0 0 34c37 7 64 39 64 78 0 39-27 71-64 78z m-16-126c-26 0-48 21-48 48 0 26 22 48 48 48 26 0 48-22 48-48 0-27-22-48-48-48z m-304 190l0 194-32 0 0-194c-37-7-64-39-64-78 0-39 27-71 64-78l0-98 32 0 0 98c37 7 64 39 64 78 0 39-27 71-64 78z m-16-126c-27 0-48 21-48 48 0 26 21 48 48 48 27 0 48-22 48-48 0-27-21-48-48-48z"/>
<glyph unicode="&#64;" d="M352 416c0 18-14 32-32 32l-32 0 0 32-32 0 0-32-32 0c-18 0-32-14-32-32l0-96c0-18 14-32 32-32l32 0 0-256 32 0 0 256 32 0c18 0 32 14 32 32z m-32-80c0-9-7-16-16-16l-64 0c-9 0-16 7-16 16l0 64c0 9 7 16 16 16l64 0c9 0 16-7 16-16z m-160-48l-32 0 0 192-32 0 0-192-32 0c-18 0-32-14-32-32l0-96c0-18 14-32 32-32l32 0 0-96 32 0 0 96 32 0c18 0 32 14 32 32l0 96c0 18-14 32-32 32z m0-112c0-9-7-16-16-16l-64 0c-9 0-16 7-16 16l0 64c0 9 7 16 16 16l64 0c9 0 16-7 16-16z m320 48l-32 0 0 256-32 0 0-256-32 0c-18 0-32-14-32-32l0-96c0-18 14-32 32-32l32 0 0-32 32 0 0 32 32 0c18 0 32 14 32 32l0 96c0 18-14 32-32 32z m0-112c0-9-7-16-16-16l-64 0c-9 0-16 7-16 16l0 64c0 9 7 16 16 16l64 0c9 0 16-7 16-16z"/>
<glyph unicode="&#91;" d="M416 256c0 56-42 103-96 110l0-32c37-7 64-39 64-78 0-39-27-71-64-78l0-32c54 7 96 54 96 110z m-96 221l0-32c91-16 160-94 160-189 0-95-69-174-160-189l0-32c108 16 192 108 192 221 0 113-84 205-192 221z m-256-125c-18 0-32-14-32-32l0-128c0-18 14-32 32-32l64 0 160-96 0 384-160-96z m192-240l-128 80-48 0c-9 0-16 7-16 16l0 96c0 9 7 16 16 16l48 0 128 80z"/>
<glyph unicode="&#93;" d="M96 352c-18 0-32-14-32-32l0-128c0-18 14-32 32-32l64 0 160-96 0 384-160-96z m192-240l-128 80-48 0c-9 0-16 7-16 16l0 96c0 9 7 16 16 16l48 0 128 80z m64 254l0-32c37-7 64-39 64-78 0-39-27-71-64-78l0-32c54 7 96 54 96 110 0 56-42 103-96 110z"/>
<glyph unicode="&#94;" d="M224 352l-64 0c-18 0-32-14-32-32l0-128c0-18 14-32 32-32l64 0 160-96 0 384z m128-240l-128 80-48 0c-9 0-16 7-16 16l0 96c0 9 7 16 16 16l48 0 128 80z"/>
<glyph unicode="&#95;" d="M64 352c-18 0-32-14-32-32l0-128c0-18 14-32 32-32l64 0 159-96 0 384-159-96z m192-240l-128 80-48 0c-9 0-16 7-16 16l0 96c0 9 7 16 16 16l48 0 128 80 0-288z m250 76l-68 68 68 69c6 6 6 16 0 22-6 7-17 7-23 0l-68-68-68 68c-6 7-16 7-23 0-6-6-6-16 0-22l68-69-68-68c-6-6-6-17 0-23 6-6 16-6 23 0l68 69 69-69c6-6 16-6 22 0 7 6 7 17 0 23z"/>
<glyph unicode="&#96;" d="M416 256c0 56-42 103-96 110l0-32c37-7 64-39 64-78 0-39-27-71-64-78l0-32c54 7 96 54 96 110z m-352 96c-18 0-32-14-32-32l0-128c0-18 14-32 32-32l64 0 160-96 0 384-160-96z m64-160l-48 0c-9 0-16 7-16 16l0 96c0 9 7 16 16 16l48 0z m32 148l96 60 0-288-96 60z m160 137l0-32c91-16 160-94 160-189 0-95-69-174-160-189l0-32c108 16 192 108 192 221 0 113-84 205-192 221z"/>
<glyph unicode="&#123;" d="M96 352c-18 0-32-14-32-32l0-128c0-18 14-32 32-32l64 0 160-96 0 384-160-96z m64-48l0-112-48 0c-9 0-16 7-16 16l0 96c0 9 7 16 16 16l48 0z m32 36l96 60 0-288-96 60z m160 26l0-32c37-7 64-39 64-78 0-39-27-71-64-78l0-32c54 7 96 54 96 110 0 56-42 103-96 110z"/>
<glyph unicode="&#124;" d="M224 352l-64 0c-18 0-32-14-32-32l0-128c0-18 14-32 32-32l64 0 160-96 0 384z m0-160l-48 0c-9 0-16 7-16 16l0 96c0 9 7 16 16 16l48 0z m128-80l-96 60 0 168 96 60z"/>
<glyph unicode="&#125;" d="M64 352c-18 0-32-14-32-32l0-128c0-18 14-32 32-32l64 0 159-96 0 384-159-96z m96-12l96 60 0-288-96 60z m-32-148l0 16c0 0 0 0 0 0l0-16-48 0c-9 0-16 7-16 16l0 96c0 9 7 16 16 16l48 0 0-16c0 0 0 0 0 0l0 16 0 0z m378-4l-68 68 68 69c6 6 6 16 0 22-6 7-17 7-23 0l-68-68-68 68c-6 7-16 7-23 0-6-6-6-16 0-22l68-69-68-68c-6-6-6-17 0-23 6-6 16-6 23 0l68 69 69-69c6-6 16-6 22 0 7 6 7 17 0 23z"/>
<glyph unicode="&#126;" d="M256 512c-141 0-256-115-256-256 0-141 115-256 256-256 141 0 256 115 256 256 0 141-115 256-256 256z m-169-110l91-91c-6-8-11-18-14-28l-125 26c8 35 25 66 48 93z m169-370c-124 0-224 100-224 224 0 7 1 14 2 21l127-26c2-51 44-91 95-91 17 0 33 5 47 12l93-90c-38-31-87-50-140-50z m-64 224c0 35 29 64 64 64 35 0 64-29 64-64 0-35-29-64-64-64-35 0-64 29-64 64z m228-152l-92 90c8 9 15 20 19 32l126-25c-10-36-28-70-53-97z m-68 155c-2 51-44 93-96 93-21 0-39-7-55-18l-91 91c39 34 90 55 146 55 124 0 224-100 224-224 0-8-2-15-2-22z"/>
<glyph unicode="&#92;" d="M208 208l96 0 0 96-96 0z m272 304l-448 0c-18 0-32-14-32-32l0-448c0-18 14-32 32-32l448 0c18 0 32 14 32 32l0 448c0 18-14 32-32 32z m0-464c0-9-7-16-16-16l-416 0c-9 0-16 7-16 16l0 416c0 9 7 16 16 16l416 0c9 0 16-7 16-16z"/>
<glyph unicode="&#57344;" d="M256 512c-141 0-256-115-256-256 0-141 115-256 256-256 141 0 256 115 256 256 0 141-115 256-256 256z m0-480c-124 0-224 100-224 224 0 124 100 224 224 224 124 0 224-100 224-224 0-124-100-224-224-224z m0 272c-27 0-48-22-48-48 0-27 21-48 48-48 27 0 48 21 48 48 0 26-21 48-48 48z"/>
<glyph unicode="&#57345;" d="M384 144c0 62-50 112-112 112-62 0-112-50-112-112 0-62 50-112 112-112 62 0 112 50 112 112z m-112-80c-44 0-80 36-80 80 0 44 36 80 80 80 44 0 80-36 80-80 0-44-36-80-80-80z m173 448l-346 0c-19 0-35-14-35-32l0-448c0-18 16-32 35-32l346 0c20 0 35 14 35 32l0 448c0 18-15 32-35 32z m3-464c0-9-8-16-18-16l-316 0c-10 0-18 7-18 16l0 416c0 9 8 16 18 16l316 0c10 0 18-7 18-16z m-176 400c-44 0-80-36-80-80 0-44 36-80 80-80 44 0 80 36 80 80 0 44-36 80-80 80z m0-128c-26 0-48 21-48 48 0 26 21 48 48 48 27 0 48-22 48-48 0-27-22-48-48-48z"/>
<glyph unicode="&#57346;" d="M96 448l-32 0 0-32 32 0z m-32-384l32 0 0 32-32 0z m352 0l32 0 0 32-32 0z m-160 288c-53 0-96-43-96-96 0-53 43-96 96-96 53 0 96 43 96 96 0 53-43 96-96 96z m0-160c-35 0-64 29-64 64 0 35 29 64 64 64 35 0 64-29 64-64 0-35-29-64-64-64z m160 224l32 0 0 32-32 0z m64 96l-448 0c-18 0-32-14-32-32l0-448c0-18 14-32 32-32l448 0c18 0 32 14 32 32l0 448c0 18-14 32-32 32z m0-464c0-9-7-16-16-16l-416 0c-9 0-16 7-16 16l0 416c0 9 7 16 16 16l416 0c9 0 16-7 16-16z m-224 400c-106 0-192-86-192-192 0-106 86-192 192-192 106 0 192 86 192 192 0 106-86 192-192 192z m0-352c-88 0-160 72-160 160 0 88 72 160 160 160 88 0 160-72 160-160 0-88-72-160-160-160z"/>
<glyph unicode="&#57347;" d="M272 512c-97 0-176-79-176-176 0-65 36-122 89-152l23-152c0-18 14-32 32-32l64 0c18 0 32 14 32 32l23 152c53 30 89 87 89 152 0 97-79 176-176 176z m0-32c63 0 115-40 135-96l-270 0c20 56 72 96 135 96z m32-432c0-9-7-16-16-16l-32 0c-9 0-16 7-16 16l-22 121c17-5 35-9 54-9 19 0 37 4 54 9z m-32 144c-63 0-115 40-135 96l270 0c-20-56-72-96-135-96z m-142 128c-1 5-2 10-2 16 0 5 1 11 2 16l284 0c1-5 2-11 2-16 0-6-1-11-2-16z"/>
<glyph unicode="&#57348;" d="M392 414c-20 57-73 98-136 98-63 0-116-41-136-98-14-3-24-15-24-30l0-32c0-15 11-27 25-31 8-23 22-44 40-61 0-1 31-228 31-228 0-18 14-32 32-32l64 0c18 0 32 14 32 32 0 0 31 227 31 228 18 17 32 38 40 61 14 4 25 16 25 31l0 32c0 15-10 27-24 30z m-136 66c45 0 83-26 101-64l-202 0c18 38 56 64 101 64z m32-432c0-9-7-16-16-16l-32 0c-9 0-16 7-16 16l-32 192c19-10 41-16 64-16 23 0 45 6 64 16z m-32 208c-45 0-83 26-101 64l202 0c-18-38-56-64-101-64z m112 96l-224 0c-9 0-16 7-16 16 0 9 7 16 16 16l224 0c9 0 16-7 16-16 0-9-7-16-16-16z"/>
<glyph unicode="&#57349;" d="M478 304c-8 116-104 208-222 208-118 0-214-92-222-208l-34 0 0-192c0-27 21-48 48-48l64 0c26 0 48 21 48 48l0 192-48 0c0 0 0 0 0 0l-46 0c8 98 89 176 190 176 101 0 182-78 190-176l-46 0c0 0 0 0 0 0l-48 0 0-48c0 0 0 0 0 0l0-144c0-27 22-48 48-48l16 0 0-64 32 0 0 64 16 0c26 0 48 21 48 48l0 192z m-350-32l0-160c0-9-7-16-16-16l-64 0c-9 0-16 7-16 16l0 160z m352-64l0-96c0-9-7-16-16-16l-64 0c-9 0-16 7-16 16l0 160 96 0z"/>
<glyph unicode="&#57350;" d="M479 279c1 3 1 6 1 9 0 124-100 224-224 224-124 0-224-100-224-224 0-3 0-6 1-9-20-11-33-31-33-55l0-96c0-35 29-64 64-64l32 0c6 0 12 1 18 3 5-2 9-3 14-3 35 0 64 50 64 112 0 62-29 112-64 112-5 0-9-1-14-3-6 2-12 3-18 3l-32 0c0 106 86 192 192 192 106 0 192-86 192-192l-32 0c-6 0-12-1-18-3-4 2-9 3-14 3-35 0-64-50-64-112 0-62 29-112 64-112 5 0 10 1 14 3 6-2 12-3 18-3l0-64 32 0 0 64c35 0 64 29 64 64l0 96c0 24-13 44-33 55z m-351-23c18 0 32-36 32-80 0-44-14-80-32-80-18 0-32 36-32 80 0 44 14 80 32 80z m-45 0c-12-20-19-49-19-80 0-31 7-60 19-80l-19 0c-18 0-32 14-32 32l0 96c0 18 14 32 32 32z m301-160c-18 0-32 36-32 80 0 44 14 80 32 80 18 0 32-36 32-80 0-44-14-80-32-80z m96 32c0-18-14-32-32-32l-19 0c12 20 19 49 19 80 0 31-7 60-19 80l19 0c18 0 32-14 32-32z"/>
<glyph unicode="&#57351;" d="M416 288l32 0 0 32-32 0z m-208 64c-79 0-144-65-144-144 0-80 65-144 144-144 80 0 144 64 144 144 0 79-64 144-144 144z m0-32c31 0 58-13 78-32l-156 0c20 19 48 32 78 32z m0-224c-30 0-58 12-78 32l157 0c-21-20-48-32-79-32z m101 64l-202 0c-4 10-7 20-9 32l220 0c-1-12-4-22-9-32z m-211 64c2 11 5 22 9 32l202 0c5-10 8-21 9-32z m350 192l-31 0-397 95c-8 3-17-2-19-11-3-8 2-17 11-19l281-65-229 0c-35 0-64-29-64-64l0-288c0-36 29-64 64-64l384 0c36 0 64 28 64 64l0 288c0 35-28 64-64 64z m32-352c0-18-14-32-32-32l-384 0c-17 0-32 14-32 32l0 288c0 17 15 32 32 32l384 0c18 0 32-15 32-32z m-64 160l32 0 0 32-32 0z"/>
<glyph unicode="&#57352;" d="M368 96l64 0c9 0 16 7 16 16l0 64c0 9-7 16-16 16l-64 0c-9 0-16-7-16-16l0-64c0-9 7-16 16-16z m16 64l32 0 0-32-32 0z m-16 64l64 0c9 0 16 7 16 16l0 64c0 9-7 16-16 16l-64 0c-9 0-16-7-16-16l0-64c0-9 7-16 16-16z m16 64l32 0 0-32-32 0z m-272-192l64 0c9 0 16 7 16 16l0 64c0 9-7 16-16 16l-64 0c-9 0-16-7-16-16l0-64c0-9 7-16 16-16z m16 64l32 0 0-32-32 0z m112 64l64 0c9 0 16 7 16 16l0 64c0 9-7 16-16 16l-64 0c-9 0-16-7-16-16l0-64c0-9 7-16 16-16z m16 64l32 0 0-32-32 0z m224 224l-416 0c-18 0-32-14-32-32l0-448c0-18 14-32 32-32l416 0c18 0 32 14 32 32l0 448c0 18-14 32-32 32z m0-464c0-9-7-16-16-16l-384 0c-9 0-16 7-16 16l0 336 416 0z m0 368l-416 0 0 48c0 9 7 16 16 16l384 0c9 0 16-7 16-16z m-368-192l64 0c9 0 16 7 16 16l0 64c0 9-7 16-16 16l-64 0c-9 0-16-7-16-16l0-64c0-9 7-16 16-16z m16 64l32 0 0-32-32 0z m112-192l64 0c9 0 16 7 16 16l0 64c0 9-7 16-16 16l-64 0c-9 0-16-7-16-16l0-64c0-9 7-16 16-16z m16 64l32 0 0-32-32 0z"/>
<glyph unicode="&#57353;" d="M448 416l0 96-128 0 0-96-32 0 0-96-64 0 0 96-32 0 0 96-128 0 0-96-32 0 0-416 192 0 0 160 64 0 0-160 192 0 0 416z m-352 64l64 0 0-64-64 0z m96-448l-128 0 0 64 128 0z m0 96l-128 0 0 256 128 0z m96 64l-64 0 0 96 64 0z m64 288l64 0 0-64-64 0z m96-448l-128 0 0 64 128 0z m0 96l-128 0 0 256 128 0z"/>
<glyph unicode="&#57354;" d="M432 512l-352 0c-44 0-80-36-80-80 0-44 36-80 80-80l80 0 0-112c0-9 7-16 16-16l80 0 0-32c-18 0-32-14-32-32l0-128c0-18 14-32 32-32l32 0c18 0 32 14 32 32l0 128c0 18-14 32-32 32l0 48c0 9-7 16-16 16l-80 0 0 96 240 0c44 0 80 36 80 80 0 44-36 80-80 80z m-160-352c9 0 16-7 16-16l0-96c0-9-7-16-16-16-9 0-16 7-16 16l0 96c0 9 7 16 16 16z m160 224l-352 0c-27 0-48 21-48 48 0 26 21 48 48 48l352 0c26 0 48-22 48-48 0-27-22-48-48-48z"/>
<glyph unicode="&#57355;" d="M368 320c9 0 16 7 16 16 0 9-7 16-16 16l-112 0 0 64 112 0c9 0 16 7 16 16 0 9-7 16-16 16l-112 0c0 18-14 32-32 32l-64 0c-18 0-32-14-32-32l0-416c0-18 14-32 32-32l64 0c18 0 32 14 32 32l112 0c9 0 16 7 16 16 0 9-7 16-16 16l-112 0 0 64 112 0c9 0 16 7 16 16 0 9-7 16-16 16l-112 0 0 64 112 0c9 0 16 7 16 16 0 9-7 16-16 16l-112 0 0 64z m-144-272c0-9-7-16-16-16l-32 0c-9 0-16 7-16 16l0 384c0 9 7 16 16 16l32 0c9 0 16-7 16-16z"/>
<glyph unicode="&#57356;" d="M491 316l-79 80c12 13 12 33 0 46l-46 45c-12 13-33 13-45 0l-296-296c-13-12-13-33 0-45l45-46c13-12 33-12 46 0l80-79c6-7 16-7 22 0 7 6 7 16 0 22l-79 80 45 46 80-80c6-6 16-6 23 0 6 6 6 16 0 23l-80 79 45 46 80-80c6-6 17-6 23 0 6 6 6 17 0 23l-80 80 46 45 79-80c7-6 17-6 23 0 6 7 6 17 0 23l-80 80 46 45 79-79c7-7 17-7 23 0 7 6 7 16 0 22z m-113 91l-205-204-68-69c-7-6-17-6-23 0l-23 23c-6 6-6 17 0 23l273 273c6 6 17 6 23 0l23-23c6-6 6-16 0-23z"/>
<glyph unicode="&#57357;" d="M368 320l-128 0c-9 0-16-7-16-16 0-9 7-16 16-16l128 0c9 0 16 7 16 16 0 9-7 16-16 16z m-192 192c-9 0-16-7-16-16l0-480c0-9 7-16 16-16 9 0 16 7 16 16l0 480c0 9-7 16-16 16z m64-32l128 0c9 0 16 7 16 16 0 9-7 16-16 16l-128 0c-9 0-16-7-16-16 0-9 7-16 16-16z m128-32l-128 0c-9 0-16-7-16-16 0-9 7-16 16-16l128 0c9 0 16 7 16 16 0 9-7 16-16 16z m0-64l-128 0c-9 0-16-7-16-16 0-9 7-16 16-16l128 0c9 0 16 7 16 16 0 9-7 16-16 16z"/>
<glyph unicode="&#57358;" d="M472 94l-221 162 221 162c8 5 11 15 6 22-5 8-15 11-23 6l-231-170-72 53c27 13 46 40 46 71 0 44-37 80-83 80-46 0-83-36-83-80 0-42 34-76 77-79l88-65-89-65c-42-3-76-37-76-79 0-44 37-80 83-80 46 0 83 36 83 80 0 31-19 58-46 71l72 53 231-170c8-4 18-2 23 6 5 8 2 17-6 22z m-356 258c-1 0-1 0-1 0-28 0-50 22-50 48 0 26 22 48 50 48 27 0 50-22 50-48 0-26-22-47-49-48z m49-240c0-27-23-48-50-48-28 0-50 21-50 48 0 26 22 48 50 48 27 0 50-22 50-48z"/>
<glyph unicode="&#57359;" d="M448 512l-384 0c-18 0-32-14-32-32l0-224c0-18 14-32 32-32l128 0 0-192c0-18 14-32 32-32l64 0c18 0 32 14 32 32l0 192 128 0c18 0 32 14 32 32l0 224c0 18-14 32-32 32z m-352-256l-16 0c-9 0-16 7-16 16l0 192c0 9 7 16 16 16l16 0z m192-48l0-160c0-9-7-16-16-16l-32 0c-9 0-16 7-16 16l0 176 64 0z m96 48l-256 0 0 224 256 0z m64 16c0-9-7-16-16-16l-16 0 0 224 16 0c9 0 16-7 16-16z"/>
<glyph unicode="&#57360;" d="M322 274c18 14 30 37 30 62 0 39-28 71-64 78l0 66-32 0 0-66c-36-7-64-39-64-78 0-25 12-48 30-62l-66-108c-43 29-76 71-91 122l-33 0c16-62 55-115 108-149l-76-123 27-16 76 123c34-17 72-27 113-27 36 0 70 8 101 21l72-117 27 16z m-50 110c26 0 48-22 48-48 0-27-22-48-48-48-26 0-48 21-48 48 0 26 22 48 48 48z m8-256c-34 0-67 8-96 22l67 109c6-2 14-3 21-3 7 0 15 1 21 3l71-115c-26-10-54-16-84-16z"/>
<glyph unicode="&#57361;" d="M160 512l0-512 224 0 0 512z m192-96l-96 0 0-32 96 0 0-64-64 0 0-32 64 0 0-64-96 0 0-32 96 0 0-64-64 0 0-32 64 0 0-64-160 0 0 448 160 0z"/>
<glyph unicode="&#57362;" d="M313 382l-23-22 23-23 23 23z m46 0l23-22 23 22-23 23z m92 46l-23 23c-38 38-100 38-138 0l-230-229c-38-38-38-100 0-138l23-23c38-38 100-38 138 0l230 230c38 38 38 99 0 137z m-253-344c-26-25-67-25-92 0l-23 23c-26 25-26 66 0 92l115 115 115-115z m230 230l-92-92-115 115 92 91c25 26 66 26 92 0l23-23c25-25 25-66 0-91z m-92 0l23-23 23 23-23 23z"/>
<glyph unicode="&#57363;" d="M512 224c0 141-115 256-256 256-141 0-256-115-256-256 0-11 0-42 0-48l0-128c0-27 21-48 48-48l64 0c27 0 48 21 48 48l0 128c0 26-21 48-48 48l-64 0c-6 0-11-1-16-3 0 1 0 2 0 3 0 124 100 224 224 224 124 0 224-100 224-224 0-1 0-2 0-3-5 2-10 3-16 3l-64 0c-26 0-48-22-48-48l0-128c0-27 22-48 48-48l64 0c26 0 48 21 48 48l0 128c0 6 0 37 0 48z m-464-32l64 0c9 0 16-7 16-16l0-128c0-9-7-16-16-16l-64 0c-9 0-16 7-16 16l0 128c0 9 7 16 16 16z m432-144c0-9-7-16-16-16l-64 0c-9 0-16 7-16 16l0 128c0 9 7 16 16 16l64 0c9 0 16-7 16-16z"/>
<glyph unicode="&#57364;" d="M512 224c0 141-115 256-256 256-141 0-256-115-256-256 0-11 0-42 0-48l0-96c0-27 21-48 48-48l32 0c26 0 48 21 48 48l0 96c0 26-22 48-48 48l-32 0c-6 0-11-1-16-3 0 1 0 2 0 3 0 124 100 224 224 224 124 0 224-100 224-224 0-1 0-2 0-3-5 2-10 3-16 3l-32 0c-26 0-48-22-48-48l0-96c0-27 22-48 48-48l32 0c26 0 48 21 48 48l0 96c0 6 0 37 0 48z m-464-32l32 0c9 0 16-7 16-16l0-96c0-9-7-16-16-16l-32 0c-9 0-16 7-16 16l0 96c0 9 7 16 16 16z m432-112c0-9-7-16-16-16l-32 0c-9 0-16 7-16 16l0 96c0 9 7 16 16 16l32 0c9 0 16-7 16-16z"/>
<glyph unicode="&#57365;" d="M480 480l-416 0c-18 0-32-14-32-32l0-416c0-18 14-32 32-32l416 0c18 0 32 14 32 32l0 416c0 18-14 32-32 32z m-352-448l-48 0c-9 0-16 7-16 16l0 48 64 0z m0 96l-64 0 0 96 64 0z m0 128l-64 0 0 96 64 0z m0 128l-64 0 0 48c0 9 7 16 16 16l48 0z m128-352l-96 0 0 64 96 0z m0 96l-96 0 0 96 96 0z m0 128l-96 0 0 96 96 0z m0 128l-96 0 0 64 96 0z m128-352l-96 0 0 64 96 0z m0 96l-96 0 0 96 96 0z m0 128l-96 0 0 96 96 0z m0 128l-96 0 0 64 96 0z m96-336c0-9-7-16-16-16l-48 0 0 64 64 0z m0 80l-64 0 0 96 64 0z m0 128l-64 0 0 96 64 0z m0 128l-64 0 0 64 48 0c9 0 16-7 16-16z"/>
<glyph unicode="&#57366;" d="M448 352l-64 0c-24 0-44-13-55-32l-73 0 0 64-128 0 0-64-96 0c-18 0-32-14-32-32l0-96c0-18 14-32 32-32l297 0c11-19 31-32 55-32l128 0 0 224z m-288 0l64 0 0-32-64 0z m160-160l-272 0c-9 0-16 7-16 16l0 64c0 9 7 16 16 16l272 0z m96-32l-32 0c-18 0-32 14-32 32l0 96c0 18 14 32 32 32l32 0z m64 0l-32 0 0 160 32 0z"/>
<glyph unicode="&#57367;" d="M320 256l0 73c19 11 32 31 32 55l0 128-224 0 0-128c0-24 13-44 32-55l0-297c0-18 14-32 32-32l96 0c18 0 32 14 32 32l0 96 64 0 0 128z m-160 224l160 0 0-32-160 0z m128-224l0-208c0-9-7-16-16-16l-64 0c-9 0-16 7-16 16l0 272 96 0z m0 96l-96 0c-18 0-32 14-32 32l0 32 160 0 0-32c0-18-14-32-32-32z m64-192l-32 0 0 64 32 0z"/>
<glyph unicode="&#57368;" d="M448 352l-64 0c-24 0-44-13-55-32l-73 0 0 32-128 0 0-32-96 0c-18 0-32-14-32-32l0-96c0-18 14-32 32-32l297 0c11-19 31-32 55-32l128 0 0 224z m-288-32l64 0 0-32-64 0z m160-128l-272 0c-9 0-16 7-16 16l0 64c0 9 7 16 16 16l80 0 0-32 128 0 0 32 64 0z m96-32l-32 0c-18 0-32 14-32 32l0 96c0 18 14 32 32 32l32 0z m64 0l-32 0 0 160 32 0z"/>
<glyph unicode="&#57369;" d="M320 512l-160 0 0-128c0-24 13-44 32-55l0-297c0-18 14-32 32-32l96 0c18 0 32 14 32 32l0 96 32 0 0 128-32 0 0 73c19 11 32 31 32 55l0 128z m0-464c0-9-7-16-16-16l-64 0c-9 0-16 7-16 16l0 272 96 0 0-64-32 0 0-128 32 0z m32 112l-32 0 0 64 32 0z m0 224c0-18-14-32-32-32l-96 0c-18 0-32 14-32 32l0 32 160 0z m0 64l-160 0 0 32 160 0z"/>
<glyph unicode="&#57370;" d="M256 512c-141 0-256-115-256-256l0-32 224 0 0-128c0-53 43-96 96-96 53 0 96 43 96 96l-32 0c0-35-29-64-64-64-35 0-64 29-64 64l0 128 256 0 0 32c0 141-115 256-256 256z m-224-256c0 124 100 224 224 224 124 0 224-100 224-224z"/>
</font>
</defs>
</svg>
